1 сезон

1 сезон

iTunes

1

КиноПоиск HD

Кинопоиск HD

iTunes

13

1 сезон

RePack

30

Ultimate

ВАЖНО

ИГРА 18+

pack

RePack

MK11
pack

Легкие деньги

RePack

jed

RePack

fifa19

RePack

RDR2

RePack

NEED FOR SPEED™ PAYBACK

4 сезон

9 сезон

Бесстыжие 9 сезон

Все сериалы

все сериалы на PB.wtf

RePack

FAR CRY 5
  
Magnet ссылка

Превосходство / Supremacy (Деон Тейлор / Deon Taylor) [2014, драма, BDRip-AVC от potroks] AVO piratbit.pw

Превосходство через торрент piratbit.pw

Размер: 2.18 GB | Добавлен: 5 лет 8 мес. назад | Торрент скачан:101 раз
Скачать  

15-08-2015 15:59 Превосходство Скачать торрент  

Превосходство / Supremacy
Год выпуска: 2014
Страна: США / Hidden Empire Film Group, Media House Capital
Жанр: драма
Продолжительность: 01:50:06
Перевод: Авторский (одноголосый) [М.Яроцкий]
Субтитры: английские (SDH)
Навигация по главам: есть
Режиссер: Деон Тейлор / Deon Taylor
В ролях:

Джо Андерсон (Garrett Tully), Доун Оливери (Doreen), Ивэн Росс (Anthony), Энсон Маунт (Sobecki), Дэнни Гловер (Mr. Walker), Дерек Люк (Raymond), Лила Рошон (Mother), Махершала Али (Deputy Rivers), Джули Бенц (Kristen), Ник Чинланд (Hannity), Робин Бобо (Cassie), Алекс Хендерсон (Jamar)
Описание: Фильм основан на реальных событиях. Это история о том, как расист, который только что вышел из тюрьмы, и его безжалостная подруга убивают полицейского, а затем берут семью афро-американцев в заложники.

Качество: BDRip-AVC
Формат: MKV
Видео кодек: AVC
Аудио кодек: AC3
Видео: AVC, 1032x432 (2.40:1), 1938 kbps, 24 fps, 0,181 bit/pixel
Аудио №1: AC3 / 5.1 / 48 kHz / 448 kbps / 16 bit | RUS
Аудио №2: AC3 / 5.1 / 48 kHz / 448 kbps / 16 bit | ENG
Релиз группы:
Автор рипа: potroks

Код:

General
Unique ID                                : 246627824096862659121428441534732666616 (0xB98ACA891DA736B9B0738C6B9EE786F8)
Complete name                            : N:\Драма\Prevoshodstvo.2014.DUAL.BDRip.x264.-HELLYWOOD.mkv
Format                                   : Matroska
Format version                           : Version 4 / Version 2
File size                                : 2.18 GiB
Duration                                 : 1h 50mn
Overall bit rate                         : 2 836 Kbps
Movie name                               : Supremacy (2014) - HELLYWOOD
Encoded date                             : UTC 2015-08-15 04:17:03
Writing application                      : mkvmerge v5.9.0 ('On The Loose') built on Dec 15 2012 16:39:58
Writing library                          : libebml v1.3.0 + libmatroska v1.4.0

Video
ID                                       : 1
Format                                   : AVC
Format/Info                              : Advanced Video Codec
Format profile                           : High@L4.1
Format settings, CABAC                   : Yes
Format settings, ReFrames                : 10 frames
Codec ID                                 : V_MPEG4/ISO/AVC
Duration                                 : 1h 50mn
Bit rate                                 : 1 938 Kbps
Width                                    : 1 032 pixels
Height                                   : 432 pixels
Display aspect ratio                     : 2.40:1
Frame rate                               : 24.000 fps
Color space                              : YUV
Chroma subsampling                       : 4:2:0
Bit depth                                : 8 bits
Scan type                                : Progressive
Bits/(Pixel*Frame)                       : 0.181
Stream size                              : 1.45 GiB (66%)
Title                                    : potroks
Writing library                          : x264 core 146 r2538 121396c
Encoding settings                        : cabac=1 / ref=10 / deblock=1:-3:-3 / analyse=0x3:0x113 / me=umh / subme=11 / psy=1 / psy_rd=0.96:0.02 / mixed_ref=1 / me_range=56 / chroma_me=1 / trellis=2 / 8x8dct=1 / cqm=0 / deadzone=21,11 / fast_pskip=0 / chroma_qp_offset=-3 / threads=9 / lookahead_threads=2 / sliced_threads=0 / nr=0 / decimate=1 / interlaced=0 / bluray_compat=0 / constrained_intra=0 / bframes=11 / b_pyramid=2 / b_adapt=2 / b_bias=0 / direct=3 / weightb=1 / open_gop=0 / weightp=2 / keyint=250 / keyint_min=23 / scenecut=40 / intra_refresh=0 / rc_lookahead=60 / rc=2pass / mbtree=0 / bitrate=1938 / ratetol=1.0 / qcomp=0.70 / qpmin=0 / qpmax=69 / qpstep=4 / cplxblur=20.0 / qblur=0.5 / vbv_maxrate=14000 / vbv_bufsize=14000 / nal_hrd=none / filler=0 / ip_ratio=1.35 / pb_ratio=1.25 / aq=1:0.80
Language                                 : English
Default                                  : Yes
Forced                                   : No

Audio #1
ID                                       : 2
Format                                   : AC-3
Format/Info                              : Audio Coding 3
Mode extension                           : CM (complete main)
Codec ID                                 : A_AC3
Duration                                 : 1h 50mn
Bit rate mode                            : Constant
Bit rate                                 : 448 Kbps
Channel(s)                               : 6 channels
Channel positions                        : Front: L C R, Side: L R, LFE
Sampling rate                            : 48.0 KHz
Bit depth                                : 16 bits
Compression mode                         : Lossy
Stream size                              : 353 MiB (16%)
Title                                    : AVO | DD 5.1 @ 448 kbps - M.Yarotsky
Language                                 : Russian
Default                                  : Yes
Forced                                   : No

Audio #2
ID                                       : 3
Format                                   : AC-3
Format/Info                              : Audio Coding 3
Mode extension                           : CM (complete main)
Codec ID                                 : A_AC3
Duration                                 : 1h 50mn
Bit rate mode                            : Constant
Bit rate                                 : 448 Kbps
Channel(s)                               : 6 channels
Channel positions                        : Front: L C R, Side: L R, LFE
Sampling rate                            : 48.0 KHz
Bit depth                                : 16 bits
Compression mode                         : Lossy
Stream size                              : 353 MiB (16%)
Title                                    : Original | DD 5.1 @ 448 kbps
Language                                 : English
Default                                  : No
Forced                                   : No

Text
ID                                       : 4
Format                                   : UTF-8
Codec ID                                 : S_TEXT/UTF8
Codec ID/Info                            : UTF-8 Plain Text
Title                                    : SDH
Language                                 : English
Default                                  : No
Forced                                   : No

Menu
00:00:00.000                             : en:(01)00:00:00:000
00:08:32.833                             : en:(02)00:08:32:833
00:15:31.083                             : en:(03)00:15:31:083
00:21:20.166                             : en:(04)00:21:20:166
00:25:41.000                             : en:(05)00:25:41:000
00:31:05.833                             : en:(06)00:31:05:833
00:37:16.333                             : en:(07)00:37:16:333
00:42:28.083                             : en:(08)00:42:28:083
00:49:53.500                             : en:(09)00:49:53:500
00:56:30.625                             : en:(10)00:56:30:625
01:04:23.166                             : en:(11)01:04:23:166
01:09:50.291                             : en:(12)01:09:50:291
01:17:58.582                             : en:(13)01:17:58:582
01:25:43.625                             : en:(14)01:25:43:625
01:36:03.082                             : en:(15)01:36:03:082
01:45:09.625                             : en:(16)01:45:09:625
01:50:06.416                             : en:(17)01:50:06:416

piratbit.pw



Скачать Превосходство через торрент http://i70.fastpic.ru/big/2015/0815/59/0c0110d6d570d1953a329f1e15698359.png Скачать фильм Превосходство через торрент бесплантно в хорошем качестве Описание: Фильм основан на реальных событиях. Это история о том, как расист, который только что вышел из тюрьмы, и его безжалостная ... 8 10 6
Торрент: Зарегистрирован [2015-08-15 15:59] · скачан: 101 раз
Статус: √ проверено
Размер: 2.18 GB
Как cкачать? Как скачать Превосходство через торрент | UTorrent

% Раздел Тема Автор DL S | L
Фильмы с авторской озвучкой [ 1.46 GB ] Превосходство / Supremacy [2014 BDRip / AVO Яроцкий] Twi7ter Скачать
1 | 0

28-11-2019 20:33  

Отключить всю рекламу на сайте

    Дорогой пользователь! Огромная просьба, поблагодарите релизера, оцените раздачу и оставьте свои комментарий, если Вы скачали Превосходство через торрент бесплатно! Внесите свою лепту в развитие PiratBit!
    Комментировать посты могут только пользователи прошедшие не сложную регистрацию
    Показать сообщения:    

    Превосходство через торрент
    Скачать бесплатно Превосходство
    Превосходство скачать торрент
    Превосходство смотреть онлайн
    Cкачать фильм Превосходство бесплатно
    Превосходство скачать торрент в хорошем качестве
    Превосходство смотреть онлайн бесплатно в хорошем качестве


    Вы не можете начинать темы
    Вы не можете отвечать на сообщения
    Вы не можете редактировать свои сообщения
    Вы не можете удалять свои сообщения
    Вы не можете голосовать в опросах
    Вы не можете прикреплять файлы к сообщениям
    Вы можете скачивать файлы