1 сезон

1 сезон

iTunes

1

КиноПоиск HD

Кинопоиск HD

iTunes

13

1 сезон

RePack

30

Ultimate

ВАЖНО

ИГРА 18+

pack

RePack

MK11
pack

Легкие деньги

RePack

jed

RePack

fifa19

RePack

RDR2

RePack

NEED FOR SPEED™ PAYBACK

4 сезон

9 сезон

Бесстыжие 9 сезон

Все сериалы

все сериалы на PB.wtf

RePack

FAR CRY 5
  
Magnet ссылка

Восставший из ада 5: Преисподняя / Hellraiser: Inferno (Скотт Дерриксон) [2000 г., ужасы, триллер, криминал, детектив, HDRip, Авторский (Гаврилов)] piratbit.pw

Восставший из ада 5: Преисподняя через торрент piratbit.pw

Размер: 1.47 GB | Добавлен: 5 лет 8 мес. назад | Торрент скачан:16 раз
Скачать  

14-08-2015 09:59 Восставший из ада 5: Преисподняя Скачать торрент  

Восставший из ада 5: Преисподняя / Hellraiser: InfernoГод выпуска: 2000
Страна: США
Жанр: ужасы, триллер, криминал, детектив
Продолжительность: 01:40:09
Перевод: Авторский (Гаврилов)
Субтитры: Нет

Режиссер: Скотт Дерриксон
Продюссер: В.К. Бордер, Джоэль Сойзон, Джесси Бердинка
Сценарий: Пол Харрис Бордман, Скотт Дерриксон, Клайв Баркер

Бюджет: $2 000 000
Премьера в мире: 3 октября 2000



В ролях: Майкл Реган, Крэйг Шеффер, Николас Туртурро, Джеймс Римар, Даг Брэдли, Николас Сэдлер, Ноэлль Ивэнс, Мэтт Джордж, Майкл Шамус, Кармен Ардженциано, Кристофер Криеза, Дж. Б. Гайон, Коко Лей, Дэниэл Гэвин, Уинифред Фридмэн Майкл Дэнни, Дарлен Левин, Морин Сью Левин, Брэд Паркер

Описание: Созданная в 18-м веке магическая головоломка, способная открыть дорогу в ад, попадает в руки порочного полицейского из Лос-Анджелеса. И с этого момента все вокруг становится кошмаром. Может это возмездие за его неправедную жизнь? Но тогда очень страшное, потому что беспредел, творимый Джозефом, оказывается лишь бледной тенью настоящего адского бесчинства, через которое ему предстоит пройти…

Качество: HDRip | BDRip 720p
Формат: AVI
Видео кодек: XviD
Аудио кодек: AC3
Видео: 704x384 (1.83:1), 23.976 fps, XviD build 50 ~1714 kbps avg, 0.26 bit/pixel
Аудио: 48 kHz, AC3 Dolby Digital, 3/2 (L,C,R,l,r) + LFE ch, ~384 kbps



Автор рипа: Dean24





Общее
Полное имя : D:\Мои документы\Фильмы\Сайт\Hellraiser.Inferno.HDRip.avi
Формат : AVI
Формат/Информация : Audio Video Interleave
Размер файла : 1,47 Гбайт
Продолжительность : 1 ч. 40 м.
Общий поток : 2108 Кбит/сек
Программа кодирования : VirtualDubMod 1.5.10.3 | (build 2550/release)
Библиотека кодирования : VirtualDubMod build 2550/release

Видео
Идентификатор : 0
Формат : MPEG-4 Visual
Профиль формата : Advanced Simple@L5
Параметр BVOP формата : 3
Параметр QPel формата : Нет
Параметр GMC формата : Без точки перехода
Параметр матрицы формата : Default (H.263)
Идентификатор кодека : XVID
Идентификатор кодека/Подсказка : XviD
Продолжительность : 1 ч. 40 м.
Битрейт : 1715 Кбит/сек
Ширина : 704 пикселя
Высота : 384 пикселя
Соотношение сторон : 1,85:1
Частота кадров : 23,976 кадра/сек
Цветовое пространство : YUV
Субдискретизация насыщенности : 4:2:0
Битовая глубина : 8 бит
Тип развёртки : Прогрессивная
Метод сжатия : С потерями
Бит/(Пиксели*Кадры) : 0.265
Размер потока : 1,20 Гбайт (81%)
Библиотека кодирования : XviD 1.2.1 (UTC 2008-12-04)

Аудио
Идентификатор : 1
Формат : AC-3
Формат/Информация : Audio Coding 3
Расширение режима : CM (complete main)
Параметр Endianness формата : Big
Идентификатор кодека : 2000
Продолжительность : 1 ч. 40 м.
Вид битрейта : Постоянный
Битрейт : 384 Кбит/сек
Каналы : 6 каналов
Расположение каналов : Front: L C R, Side: L R, LFE
Частота : 48,0 КГц
Битовая глубина : 16 бит
Метод сжатия : С потерями
Размер потока : 275 Мбайт (18%)
Выравнивание : Разделение по промежуткам
Продолжительность промежутка : 42 мс. (1,00 видеокадр)
Время предзагрузки промежутка : 500 мс.

piratbit.pw



Скачать Восставший из ада 5: Преисподняя через торрент http://i69.fastpic.ru/big/2015/0814/3e/1b8734318a88a356e543a0a9122f203e.jpg Скачать фильм Восставший из ада 5: Преисподняя через торрент бесплантно в хорошем качестве Описание: Созданная в 18-м веке магическая головоломка, способная открыть дорогу в ад, попадает в руки порочного полицейского из ... 10 10 2
Info! Золотая раздача, скачанное не засчитывается.
Торрент: Зарегистрирован [2015-08-14 09:59] · скачан: 16 раз
Статус: √ проверено
Размер: 1.47 GB
Как cкачать? Как скачать Восставший из ада 5: Преисподняя через торрент | UTorrent

% Раздел Тема Автор DL S | L
Фильмы (Blu-ray, BD-Remux, HDDVD) [ 16.49 GB ] Восставший из ада 5: Преисподняя / Hellraiser: Inferno [2000 BD-Remux] MVO AVO Pavlin Скачать
1 | 0

28-11-2019 20:33  

Отключить всю рекламу на сайте

14-08-2015 10:00 Восставший из ада 5: Преисподняя Скачать торрент  

    Дорогой пользователь! Огромная просьба, поблагодарите релизера, оцените раздачу и оставьте свои комментарий, если Вы скачали Восставший из ада 5: Преисподняя через торрент бесплатно! Внесите свою лепту в развитие PiratBit!
    Комментировать посты могут только пользователи прошедшие не сложную регистрацию
    Показать сообщения:    

    Восставший из ада 5: Преисподняя через торрент
    Скачать бесплатно Восставший из ада 5: Преисподняя
    Восставший из ада 5: Преисподняя скачать торрент
    Восставший из ада 5: Преисподняя смотреть онлайн
    Cкачать фильм Восставший из ада 5: Преисподняя бесплатно
    Восставший из ада 5: Преисподняя скачать торрент в хорошем качестве
    Восставший из ада 5: Преисподняя смотреть онлайн бесплатно в хорошем качестве


    Вы не можете начинать темы
    Вы не можете отвечать на сообщения
    Вы не можете редактировать свои сообщения
    Вы не можете удалять свои сообщения
    Вы не можете голосовать в опросах
    Вы не можете прикреплять файлы к сообщениям
    Вы можете скачивать файлы