1 сезон

1 сезон

iTunes

1

КиноПоиск HD

Кинопоиск HD

iTunes

13

1 сезон

RePack

30

Новинка

ВАЖНО

ИГРА 18+

pack

RePack

MK11
pack

Легкие деньги

RePack

jed

RePack

fifa19

RePack

RDR2

RePack

NEED FOR SPEED™ PAYBACK

4 сезон

9 сезон

Бесстыжие 9 сезон

Все сериалы

все сериалы на PB.wtf

RePack

FAR CRY 5
  
Magnet ссылка

Восставший из ада 4: Кровное родство / Hellraiser: Bloodline (Кевин Ягер, Алан Смити) [1996 г., ужасы, фантастика, HDRip, Авторский (Гаврилов)] piratbit.pw

Восставший из ада 4: Кровное родство через торрент piratbit.pw

Размер: 1.46 GB | Добавлен: 5 лет 8 мес. назад | Торрент скачан:11 раз
Скачать  

13-08-2015 17:37 Восставший из ада 4: Кровное родство Скачать торрент  

Восставший из ада 4: Кровное родство / Hellraiser: BloodlineГод выпуска: 1996
Страна: США
Жанр: ужасы, фантастика
Продолжительность: 01:24:44
Перевод: Авторский (Гаврилов)
Субтитры: Нет

Режиссер: Кевин Ягер, Алан Смити
Продюссер: Нэнси Рэй Стоун, Клайв Баркер, Анна С. Миллер
Сценарий: Питер Аткинс

Бюджет: $4 000 000
Премьера в мире: 8 марта 1996



В ролях: Брюс Рэмсей, Валентина Варгас, Даг Брэдли, Шарлотта Чаттон, Адам Скотт, Ким Майерс, Мики Коттрелл, Луи Тюренн, Кортленд Мид, Луис Мустилльо

Описание: Жуткие события происходят в 2127-ом году на космической станции Минос. Доктор Мерчант, одержимый какими-то странными, безумными идеями, захватил станцию, чтобы провести в жизнь свои таинственные эксперименты. Доктора «повязали», и он рассказал, как же он дошёл до жизни такой. И выяснилось, что причина безумия доктора в магическом кубике, изготовленном мастером игрушек Ле Маршаном ещё несколько столетий назад.

Качество: HDRip | BDRip 720p
Формат: AVI
Видео кодек: XviD
Аудио кодек: AC3
Видео: 704x384 (1.83:1), 23.976 fps, XviD build 50 ~2071 kbps avg, 0.32 bit/pixel
Аудио: 48 kHz, AC3 Dolby Digital, 3/2 (L,C,R,l,r) + LFE ch, ~384 kbps



Автор рипа: Dean24





Общее
Полное имя : D:\Мои документы\Фильмы\Сайт\Hellraiser.Bloodline.HDRip.avi
Формат : AVI
Формат/Информация : Audio Video Interleave
Размер файла : 1,46 Гбайт
Продолжительность : 1 ч. 24 м.
Общий поток : 2465 Кбит/сек
Программа кодирования : VirtualDubMod 1.5.10.3 || (build 2550/release)
Библиотека кодирования : VirtualDubMod build 2550/release

Видео
Идентификатор : 0
Формат : MPEG-4 Visual
Профиль формата : Advanced Simple@L5
Параметр BVOP формата : 3
Параметр QPel формата : Нет
Параметр GMC формата : Без точки перехода
Параметр матрицы формата : Default (H.263)
Идентификатор кодека : XVID
Идентификатор кодека/Подсказка : XviD
Продолжительность : 1 ч. 24 м.
Битрейт : 2072 Кбит/сек
Ширина : 704 пикселя
Высота : 384 пикселя
Соотношение сторон : 1,85:1
Частота кадров : 23,976 кадра/сек
Цветовое пространство : YUV
Субдискретизация насыщенности : 4:2:0
Битовая глубина : 8 бит
Тип развёртки : Прогрессивная
Метод сжатия : С потерями
Бит/(Пиксели*Кадры) : 0.320
Размер потока : 1,23 Гбайт (84%)
Библиотека кодирования : XviD 1.2.1 (UTC 2008-12-04)

Аудио
Идентификатор : 1
Формат : AC-3
Формат/Информация : Audio Coding 3
Расширение режима : CM (complete main)
Параметр Endianness формата : Big
Идентификатор кодека : 2000
Продолжительность : 1 ч. 24 м.
Вид битрейта : Постоянный
Битрейт : 384 Кбит/сек
Каналы : 6 каналов
Расположение каналов : Front: L C R, Side: L R, LFE
Частота : 48,0 КГц
Битовая глубина : 16 бит
Метод сжатия : С потерями
Размер потока : 233 Мбайт (16%)
Выравнивание : Разделение по промежуткам
Продолжительность промежутка : 42 мс. (1,00 видеокадр)
Время предзагрузки промежутка : 500 мс.

piratbit.pw



Скачать Восставший из ада 4: Кровное родство через торрент http://i71.fastpic.ru/big/2015/0813/3d/febe692fee573366e7d17f8034aab83d.jpg Скачать фильм Восставший из ада 4: Кровное родство через торрент бесплантно в хорошем качестве Описание: Жуткие события происходят в 2127-ом году на космической станции Минос. Доктор Мерчант, одержимый какими-то странными, безумными ... 10 10 4
Info! Золотая раздача, скачанное не засчитывается.
Торрент: Зарегистрирован [2015-08-13 17:37] · скачан: 11 раз
Статус: √ проверено
Размер: 1.46 GB
Как cкачать? Как скачать Восставший из ада 4: Кровное родство через торрент | UTorrent



Последний раз редактировалось: Dean24 (2015-08-13 21:08), всего редактировалось 1 раз

28-11-2019 20:33  

Отключить всю рекламу на сайте

13-08-2015 17:38 Восставший из ада 4: Кровное родство Скачать торрент  

    Дорогой пользователь! Огромная просьба, поблагодарите релизера, оцените раздачу и оставьте свои комментарий, если Вы скачали Восставший из ада 4: Кровное родство через торрент бесплатно! Внесите свою лепту в развитие PiratBit!
    Комментировать посты могут только пользователи прошедшие не сложную регистрацию
    Показать сообщения:    

    Восставший из ада 4: Кровное родство через торрент
    Скачать бесплатно Восставший из ада 4: Кровное родство
    Восставший из ада 4: Кровное родство скачать торрент
    Восставший из ада 4: Кровное родство смотреть онлайн
    Cкачать фильм Восставший из ада 4: Кровное родство бесплатно
    Восставший из ада 4: Кровное родство скачать торрент в хорошем качестве
    Восставший из ада 4: Кровное родство смотреть онлайн бесплатно в хорошем качестве


    Вы не можете начинать темы
    Вы не можете отвечать на сообщения
    Вы не можете редактировать свои сообщения
    Вы не можете удалять свои сообщения
    Вы не можете голосовать в опросах
    Вы не можете прикреплять файлы к сообщениям
    Вы можете скачивать файлы