1 сезон

1 сезон

iTunes

1

КиноПоиск HD

Кинопоиск HD

iTunes

13

1 сезон

RePack

30

Ultimate

ВАЖНО

ИГРА 18+

pack

RePack

MK11
pack

Легкие деньги

RePack

jed

RePack

fifa19

RePack

RDR2

RePack

NEED FOR SPEED™ PAYBACK

4 сезон

9 сезон

Бесстыжие 9 сезон

Все сериалы

все сериалы на PB.wtf

RePack

FAR CRY 5
  
Magnet ссылка

Восставший из ада 3: Ад на Земле / Hellraiser III: Hell on Earth (Энтони Хикокс) [1992 г., Ужасы, HDRip, Авторский (Гаврилов)] piratbit.pw

Восставший из ада 3: Ад на Земле через торрент piratbit.pw

Размер: 1.46 GB | Добавлен: 5 лет 8 мес. назад | Торрент скачан:36 раз
Скачать  

13-08-2015 12:22 Восставший из ада 3: Ад на Земле Скачать торрент  

Восставший из ада 3: Ад на Земле / Hellraiser III: Hell on EarthГод выпуска: 1992
Страна: США, Канада
Жанр: Ужасы
Продолжительность: 01:33:06
Перевод: Авторский (Гаврилов)
Субтитры: Нет

Режиссер: Энтони Хикокс
Продюссер: Кристофер Фигг, Лоуренс Морторфф, Клайв Баркер
Сценарий: Питер Аткинс, Клайв Баркер, Тони Рэндел

Премьера в мире: 11 сентября 1992



В ролях: Даг Брэдли, Кевин Бернхардт, Лоуренс Морторфф, Терри Фаррелл, Кен Карпентер, Шарон Хилл, Пола Маршалл, Роберт С. Тревилер, Кристофер Фредерик, Лоуренс Куппин, Шарон Персивал

Описание: Недремлющее Зло вновь вырывается из своего потустороннего плена и начинает настоящую бойню. И, как это частенько водится, на всей планете есть только один человек, который в состоянии противостоять темной адской воле этого исчадия — милая и очаровательная тележурналистка Джоуи.

Качество: HDRip | BDRip 1080p
Формат: AVI
Видео кодек: XviD
Аудио кодек: AC3
Видео: 704x384 (1.83:1), 23.976 fps, XviD build 50 ~1850 kbps avg, 0.28 bit/pixel
Аудио: 48 kHz, AC3 Dolby Digital, 3/2 (L,C,R,l,r) + LFE ch, ~384 kbps


Автор рипа: Dean24





Общее
Полное имя : D:\Мои документы\Фильмы\Сайт\Hellraiser.III.Hell.on.Earth.HDRip.avi
Формат : AVI
Формат/Информация : Audio Video Interleave
Размер файла : 1,46 Гбайт
Продолжительность : 1 ч. 33 м.
Общий поток : 2244 Кбит/сек
Программа кодирования : VirtualDubMod 1.5.10.3 | (build 2550/release)
Библиотека кодирования : VirtualDubMod build 2550/release

Видео
Идентификатор : 0
Формат : MPEG-4 Visual
Профиль формата : Advanced Simple@L5
Параметр BVOP формата : 3
Параметр QPel формата : Нет
Параметр GMC формата : Без точки перехода
Параметр матрицы формата : Default (H.263)
Идентификатор кодека : XVID
Идентификатор кодека/Подсказка : XviD
Продолжительность : 1 ч. 33 м.
Битрейт : 1851 Кбит/сек
Ширина : 704 пикселя
Высота : 384 пикселя
Соотношение сторон : 1,85:1
Частота кадров : 23,976 кадра/сек
Цветовое пространство : YUV
Субдискретизация насыщенности : 4:2:0
Битовая глубина : 8 бит
Тип развёртки : Прогрессивная
Метод сжатия : С потерями
Бит/(Пиксели*Кадры) : 0.286
Размер потока : 1,20 Гбайт (82%)
Библиотека кодирования : XviD 1.2.1 (UTC 2008-12-04)

Аудио
Идентификатор : 1
Формат : AC-3
Формат/Информация : Audio Coding 3
Расширение режима : CM (complete main)
Параметр Endianness формата : Big
Идентификатор кодека : 2000
Продолжительность : 1 ч. 33 м.
Вид битрейта : Постоянный
Битрейт : 384 Кбит/сек
Каналы : 6 каналов
Расположение каналов : Front: L C R, Side: L R, LFE
Частота : 48,0 КГц
Битовая глубина : 16 бит
Метод сжатия : С потерями
Размер потока : 256 Мбайт (17%)
Выравнивание : Разделение по промежуткам
Продолжительность промежутка : 42 мс. (1,00 видеокадр)
Время предзагрузки промежутка : 500 мс.

piratbit.pw



Скачать Восставший из ада 3: Ад на Земле через торрент http://i71.fastpic.ru/big/2015/0813/3b/1e806693faa346b7c40f79b528bd333b.jpg Скачать фильм Восставший из ада 3: Ад на Земле через торрент бесплантно в хорошем качестве Описание: Недремлющее Зло вновь вырывается из своего потустороннего плена и начинает настоящую бойню. И, как это частенько водится, на всей ... 10 10 7
Info! Золотая раздача, скачанное не засчитывается.
Торрент: Зарегистрирован [2015-08-13 12:22] · скачан: 36 раз
Статус: √ проверено
Размер: 1.46 GB
Как cкачать? Как скачать Восставший из ада 3: Ад на Земле через торрент | UTorrent



Последний раз редактировалось: Dean24 (2015-08-13 13:00), всего редактировалось 1 раз

28-11-2019 20:33  

Отключить всю рекламу на сайте

13-08-2015 12:24 Восставший из ада 3: Ад на Земле Скачать торрент  

13-08-2015 12:26 Восставший из ада 3: Ад на Земле Скачать торрент  

лучший фильм, из серииpiratbit.pw



13-08-2015 13:26 Восставший из ада 3: Ад на Земле Скачать торрент  

Это, случаем, не та гнусавая озвучка 90-х годов?piratbit.pw



13-08-2015 14:14 Восставший из ада 3: Ад на Земле Скачать торрент  

HolyDevil писал(а):

лучший фильм, из серии

лучший не этот немного дальше (этот тупая резня)piratbit.pw



    Дорогой пользователь! Огромная просьба, поблагодарите релизера, оцените раздачу и оставьте свои комментарий, если Вы скачали Восставший из ада 3: Ад на Земле через торрент бесплатно! Внесите свою лепту в развитие PiratBit!
    Комментировать посты могут только пользователи прошедшие не сложную регистрацию
    Показать сообщения:    

    Восставший из ада 3: Ад на Земле через торрент
    Скачать бесплатно Восставший из ада 3: Ад на Земле
    Восставший из ада 3: Ад на Земле скачать торрент
    Восставший из ада 3: Ад на Земле смотреть онлайн
    Cкачать фильм Восставший из ада 3: Ад на Земле бесплатно
    Восставший из ада 3: Ад на Земле скачать торрент в хорошем качестве
    Восставший из ада 3: Ад на Земле смотреть онлайн бесплатно в хорошем качестве


    Вы не можете начинать темы
    Вы не можете отвечать на сообщения
    Вы не можете редактировать свои сообщения
    Вы не можете удалять свои сообщения
    Вы не можете голосовать в опросах
    Вы не можете прикреплять файлы к сообщениям
    Вы можете скачивать файлы