1 сезон

3 сезон

iTunes

1

iTunes

DUB Netflix

iTunes

13

1 сезон

RePack

30

Deluxe

pack

Легкие деньги

ВАЖНО

ИГРА 18+

pack

RePack

MK11

RePack

jed

RePack

fifa19

RePack

RDR2

RePack

NEED FOR SPEED™ PAYBACK

4 сезон

9 сезон

Бесстыжие 9 сезон

Все сериалы

все сериалы на PB.wtf

RePack

FAR CRY 5

Anonymous, доброй ночи, мы не успеваем до 1 числа собрать деньги на оплату серверов, помогите нам пожалуйста в это трудное время. В качестве благодарности мы отключим Вам всю рекламу на сайте (укажите свой ник в строку Ваше имя)!

×
  
Magnet ссылка

Социалистическая резня зомби / Socialisticky Zombi Mord (Растислав Блажек, Петер Цермак, Зузана Паулини) [2014 г., ужасы, DVDRip-AVC, VO] piratbit.pw

Социалистическая резня зомби через торрент piratbit.pw

Размер: 2.09 GB | Добавлен: 5 лет 10 мес. назад | Торрент скачан:188 раз
Скачать  

12-08-2015 06:37 Социалистическая резня зомби Скачать торрент  

Социалистическая резня зомби / Socialisticky Zombi Mord
Год выпуска: 2014
Страна: Словакия
Жанр: ужасы
Продолжительность: 01:34:00
Перевод: Любительский одноголосый

Режиссер: Растислав Блажек, Петер Цермак, Зузана Паулини



В ролях: Борис Битюков, Виктор Гжевенг, Ханка Харенкарова, Петер Левай, Вероника Валентовикова, Дениса Ротлингова, Тибор Звонар

Описание: Всё начинается в далёком 1968 году, когда неудачу терпит советский секретный эксперимент под кодовым названием "ЗАРАЗА", который должен был вывести из строя врагов социализма, заразив смертельной болезнью. Эксперимент выходит из под контроля, его быстренько сворачивают, но часть образцов секретного газа, под видом обычных дымовых шашек исчезает. Чехословакия 1985 год. В одно из сельскохозяйственных училищ, на уроки военной подготовки завезли дымовые шашки. Но они оказались не простыми...

Качество: DVDRip-AVC
Формат: MKV
Видео кодек: AVC
Аудио кодек: AC3
Видео: AVC, 2991 Кбит/сек, 1024x576, 25.000 кадр/сек
Аудио#1: AC3, 192 Кбит/сек, 2 канала, 48 КГц
скриншот   скриншот   скриншот   скриншот  





General
Unique ID : 185110354300911857129317014280112712501 (0x8B42F51A8DB8403FB276A684D0DC2B35)
Complete name : D:\Proba\Socialisticky Zombi Mord.2014_KypoJIecoB.mkv
Format : Matroska
Format version : Version 4 / Version 2
File size : 2.09 GiB
Duration : 1h 34mn
Overall bit rate : 3 186 Kbps
Movie name : Socialisticky Zombi Mord
Encoded date : UTC 2015-08-12 01:38:07
Writing application : mkvmerge v8.2.0 ('World of Adventure') 64bit
Writing library : libebml v1.3.1 + libmatroska v1.4.2
DURATION : 01:34:00.000000000
NUMBER_OF_FRAMES : 176250
NUMBER_OF_BYTES : 135360000
_STATISTICS_WRITING_APP : mkvmerge v8.2.0 ('World of Adventure') 64bit
_STATISTICS_WRITING_DATE_UT : 2015-08-12 01:38:07
_STATISTICS_TAGS : BPS DURATION NUMBER_OF_FRAMES NUMBER_OF_BYTES

Video
ID : 1
Format : AVC
Format/Info : Advanced Video Codec
Format profile : Main@L3.1
Format settings, CABAC : No
Format settings, ReFrames : 2 frames
Format settings, GOP : M=3, N=12
Codec ID : V_MPEG4/ISO/AVC
Duration : 1h 34mn
Bit rate : 3 000 Kbps
Width : 1 024 pixels
Height : 576 pixels
Display aspect ratio : 16:9
Frame rate mode : Constant
Frame rate : 25.000 fps
Color space : YUV
Chroma subsampling : 4:2:0
Bit depth : 8 bits
Scan type : Progressive
Bits/(Pixel*Frame) : 0.203
Stream size : 1.92 GiB (92%)
Title : KINONAVSE100
Writing library : x264 core 77
Encoding settings : cabac=0 / ref=1 / deblock=1:0:0 / analyse=0x1:0x11 / me=hex / subme=5 / psy=1 / psy_rd=0.0:0.0 / mixed_ref=0 / me_range=16 / chroma_me=1 / trellis=0 / 8x8dct=0 / cqm=0 / deadzone=21,11 / chroma_qp_offset=0 / threads=8 / nr=0 / decimate=1 / mbaff=0 / constrained_intra=0 / bframes=2 / b_pyramid=0 / b_adapt=1 / b_bias=0 / direct=1 / wpredb=0 / keyint=12 / keyint_min=7 / scenecut=40 / rc_lookahead=12 / rc=abr / mbtree=1 / bitrate=3000 / ratetol=1.0 / qcomp=0.60 / qpmin=10 / qpmax=51 / qpstep=4 / ip_ratio=1.41 / aq=1:1.00
Default : Yes
Forced : No
DURATION : 01:34:00.080000000
NUMBER_OF_FRAMES : 141000
NUMBER_OF_BYTES : 2108923440
_STATISTICS_WRITING_APP : mkvmerge v8.2.0 ('World of Adventure') 64bit
_STATISTICS_WRITING_DATE_UT : 2015-08-12 01:38:07
_STATISTICS_TAGS : BPS DURATION NUMBER_OF_FRAMES NUMBER_OF_BYTES

Audio
ID : 2
Format : AC-3
Format/Info : Audio Coding 3
Mode extension : CM (complete main)
Format settings, Endianness : Big
Codec ID : A_AC3
Duration : 1h 34mn
Bit rate mode : Constant
Bit rate : 192 Kbps
Channel(s) : 2 channels
Channel positions : Front: L R
Sampling rate : 48.0 KHz
Compression mode : Lossy
Delay relative to video : -40ms
Stream size : 129 MiB (6%)
Title : Васька Куролесов
Default : Yes
Forced : No

piratbit.pw



Скачать Социалистическая резня зомби через торрент https://pic.kartinco.top/images/11/wn3z3.jpg Скачать фильм Социалистическая резня зомби через торрент бесплантно в хорошем качестве Описание: Всё начинается в далёком 1968 году, когда неудачу терпит советский секретный эксперимент под кодовым названием "ЗАРАЗА", который ... 7.3 10 11
Торрент: Зарегистрирован [2015-08-12 06:37] · скачан: 188 раз
Статус: # сомнительно
Размер: 2.09 GB
Как cкачать? Как скачать Социалистическая резня зомби через торрент | UTorrent

28-11-2019 20:33  

Отключить всю рекламу на сайте

12-08-2015 09:48 Социалистическая резня зомби Скачать торрент  

АхахахХ)))))))))))))))))))Это *** ребят!!

Завуалированный мат на трекере запрещен. piratbit.pw



12-08-2015 12:30 Социалистическая резня зомби Скачать торрент  

что это?piratbit.pw



12-08-2015 13:41 Социалистическая резня зомби Скачать торрент  

vlad77777-77 писал(а):

что это?

трэш и угар!!! :zay: roflpiratbit.pw



12-08-2015 13:44 Социалистическая резня зомби Скачать торрент  

Это ЗАРАЗА!!!! )))))piratbit.pw



12-08-2015 15:31 Социалистическая резня зомби Скачать торрент  

высокий рейтинг, можно посмотретьpiratbit.pw



12-08-2015 16:49 Социалистическая резня зомби Скачать торрент  

ааааааааа!!!!!)))) это жесть!!!)))
Я в первые увидел фильм, который переплюнул "операция мертвый снег")))
режиссерская работа, работа оператора, работа актеров УЖАСНА, но именно этого я и ожидал...))) я вытерпел 5 мин только из-за перевода (автор добавьте сэмпл) иначе досмотрел бы))))
p.s очень понравилась сцена с бензопилой ЭЛЕКТРИЧЕСКОЙ!!!! бензопилой)))) любителям трэш фильмов, или просто веселой компании рекомендую, а если появиться дубляж, то досмотрю и сам))) piratbit.pw



13-08-2015 00:30 Социалистическая резня зомби Скачать торрент  

Пойду блевану после трейлера...piratbit.pw



26-08-2015 05:28 Социалистическая резня зомби Скачать торрент  

operokunp писал(а):

Пойду блевану после трейлера...

Не, зря вы все так) В начале фильм реально - гэ. Там и советская форма какая-то ненормальная (красные звёзды на касках у солдат будто краской намалевали), и полковник советский, лет 28-ми (как он карьеру -то так быстро сделал???), который пьёт в 68-ом году водку из бутылки ну ОЧЕНЬ современного дизайна) Но потом в дальнейшем фильм складывается достаточно неплохо. В крайнем случае, на зомби-тематику полно и американских фильмов, которые сняты и поставлены гораздо хуже. гораздо хуже.piratbit.pw



    Дорогой пользователь! Огромная просьба, поблагодарите релизера, оцените раздачу и оставьте свои комментарий, если Вы скачали Социалистическая резня зомби через торрент бесплатно! Внесите свою лепту в развитие PiratBit!
    Комментировать посты могут только пользователи прошедшие не сложную регистрацию
    Показать сообщения:    

    Социалистическая резня зомби через торрент
    Скачать бесплатно Социалистическая резня зомби
    Социалистическая резня зомби скачать торрент
    Социалистическая резня зомби смотреть онлайн
    Cкачать фильм Социалистическая резня зомби бесплатно
    Социалистическая резня зомби скачать торрент в хорошем качестве
    Социалистическая резня зомби смотреть онлайн бесплатно в хорошем качестве


    Вы не можете начинать темы
    Вы не можете отвечать на сообщения
    Вы не можете редактировать свои сообщения
    Вы не можете удалять свои сообщения
    Вы не можете голосовать в опросах
    Вы не можете прикреплять файлы к сообщениям
    Вы можете скачивать файлы