Ссылка на приватное зеркало нашего сайта всего за 1$. Внимание количество ограничено!!!

2 сезон

iTunes

1 сезон

1

iTunes

iTunes

iTunes

1 сезон

RePack

30

ИГРА 18+

pack

ВАЖНО

!!Акция!!

Alien_RageХит недели

RePack

MK11
pack

Забери бонус

RePack

jed

!!Акция!!

Alien_Rage

RePack

fifa19

RePack

Assassins Creed: Odyssey

RePack

NEED FOR SPEED™ PAYBACK

4 сезон

9 сезон

Бесстыжие 9 сезон

Все сериалы

все сериалы на PB.wtf

RePack

FAR CRY 5
  

Вычислитель (Дмитрий Грачев) [2014, фантастика, BDRip-AVC от potroks] [Лицензия] piratbit.pw

Вычислитель через торрент piratbit.pw

Размер: 1.37 GB | Добавлен: 5 лет 2 мес. назад | Торрент скачан:224 раза
Скачать  

28-07-2015 16:29 Вычислитель Скачать торрент  


Год выпуска: 2014
Страна: Россия / Art Pictures Studio, ВГТРК
Жанр: фантастика
Продолжительность: 01:23:12
Перевод: Дубляж [Blu-Ray]
Навигация по главам: есть
Режиссер: Дмитрий Грачев
В ролях:

Евгений Миронов (Эрвин Канн), Анна Чиповская (Кристи), Винни Джонс (Юст Ван Борг), Никита Панфилов (Матиас), Кирилл Козаков (капитан), Иван Верховых (Джоб), Владас Багдонас (Ян), Ирене Мускара (Мария), Линда Нигматулина (Лейла), Алексей Колубков (Валентин), Петр Скворцов (Хаймэ), Анна Попова (Анна)
Описание: Десять заключенных, приговоренных к пожизненному изгнанию с планеты XT-59, отправляются в опасный путь через Саргассово Болото. Группа сразу делится на две части: Эрвин и Кристи идут на поиск Счастливых Островов, Юст ведет остальных к Гнилой Мели. Однако долгое время их маршруты практически совпадают. В первый же вечер Эрвин понимает, что его должны убить - в прошлой жизни он занимал слишком высокий пост, и теперь он опасен для тех, кто пришел к власти. Выбрав в попутчицы Кристи, он сразу старается уйти подальше от остальных членов группы, чтобы обезопасить себя. На пути к Счастливым островам герои преодолевают массу препятствий. Цена этому - свобода и счастье.

Качество: BDRip-AVC
Формат: MKV
Видео кодек: AVC
Аудио кодек: AC3
Видео: AVC, 1032x432 (2.40:1), 1910 kbps, 25 fps, 0.171 bit/pixel
Аудио: AC3 / 5.1 / 48 kHz / 448 kbps / 16 bit
Релиз группы:
Автор рипа: potroks

Код:

Общее
Уникальный идентификатор : 231072888864436774223013125901381135703 (0xADD7050481927F9697CE65C12D09ED57)
Полное имя : N:\Фантастика\Vychislitel'.2014.RUS.BDRip.x264.-HELLYWOOD.mkv
Формат : Matroska
Версия формата : Version 4 / Version 2
Размер файла : 1,37 Гбайт
Продолжительность : 1 ч. 23 м.
Общий поток : 2359 Кбит/сек
Название фильма : Вычислитель (2014) - HELLYWOOD
Дата кодирования : UTC 2015-07-28 14:49:14
Программа кодирования : mkvmerge v5.9.0 ('On The Loose') built on Dec 15 2012 16:39:58
Библиотека кодирования : libebml v1.3.0 + libmatroska v1.4.0

Видео
Идентификатор : 1
Формат : AVC
Формат/Информация : Advanced Video Codec
Профиль формата : High@L4.1
Параметр CABAC формата : Да
Параметр ReFrames формата : 11 кадров
Идентификатор кодека : V_MPEG4/ISO/AVC
Продолжительность : 1 ч. 23 м.
Битрейт : 1910 Кбит/сек
Ширина : 1032 пикселя
Высота : 432 пикселя
Соотношение сторон : 2,40:1
Режим частоты кадров : Постоянный
Частота кадров : 25,000 кадров/сек
Цветовое пространство : YUV
Субдискретизация насыщенности : 4:2:0
Битовая глубина : 8 бит
Тип развёртки : Прогрессивная
Бит/(Пиксели*Кадры) : 0.171
Размер потока : 1,08 Гбайт (79%)
Заголовок : potroks
Библиотека кодирования : x264 core 146 r2538 121396c
Настройки программы : cabac=1 / ref=11 / deblock=1:-2:-2 / analyse=0x3:0x113 / me=umh / subme=11 / psy=1 / psy_rd=1.04:0.06 / mixed_ref=1 / me_range=48 / chroma_me=1 / trellis=2 / 8x8dct=1 / cqm=0 / deadzone=21,11 / fast_pskip=0 / chroma_qp_offset=-3 / threads=9 / lookahead_threads=2 / sliced_threads=0 / nr=0 / decimate=1 / interlaced=0 / bluray_compat=0 / constrained_intra=0 / bframes=12 / b_pyramid=2 / b_adapt=2 / b_bias=0 / direct=3 / weightb=1 / open_gop=0 / weightp=2 / keyint=250 / keyint_min=23 / scenecut=40 / intra_refresh=0 / rc_lookahead=60 / rc=2pass / mbtree=0 / bitrate=1910 / ratetol=1.0 / qcomp=0.70 / qpmin=0 / qpmax=69 / qpstep=4 / cplxblur=20.0 / qblur=0.5 / vbv_maxrate=14000 / vbv_bufsize=14000 / nal_hrd=none / filler=0 / ip_ratio=1.35 / pb_ratio=1.25 / aq=1:0.70
Язык : English
Default : Да
Forced : Нет

Аудио
Идентификатор : 2
Формат : AC-3
Формат/Информация : Audio Coding 3
Расширение режима : CM (complete main)
Параметр Endianness формата : Big
Идентификатор кодека : A_AC3
Продолжительность : 1 ч. 23 м.
Вид битрейта : Постоянный
Битрейт : 448 Кбит/сек
Каналы : 6 каналов
Расположение каналов : Front: L C R, Side: L R, LFE
Частота : 48,0 КГц
Метод сжатия : С потерями
Размер потока : 267 Мбайт (19%)
Заголовок : Original | DD 5.1 @ 448 kbps - Blu-Ray
Язык : Russian
Default : Да
Forced : Нет

Меню
00:00:00.000 : en:(01)00:00:00:000
00:07:05.480 : en:(02)00:07:05:480
00:12:38.760 : en:(03)00:12:38:760
00:21:02.720 : en:(04)00:21:02:720
00:28:53.160 : en:(05)00:28:53:160
00:35:10.960 : en:(06)00:35:10:960
00:44:00.680 : en:(07)00:44:00:680
00:50:02.160 : en:(08)00:50:02:160
00:56:15.480 : en:(09)00:56:15:480
01:01:46.040 : en:(10)01:01:46:040
01:10:02.120 : en:(11)01:10:02:120
01:15:47.080 : en:(12)01:15:47:080

piratbit.pw



Скачать Вычислитель через торрент http://pic.kartinco.top/images/11/fb1nz.jpg Скачать фильм Вычислитель через торрент бесплантно в хорошем качестве Описание: Десять заключенных, приговоренных к пожизненному изгнанию с планеты XT-59, отправляются в опасный путь через Саргассово Болото. ... 8.3 10 6
Info! Золотая раздача, скачанное не засчитывается.
Торрент: Зарегистрирован [2015-07-28 16:29] · скачан: 224 раз
Статус: √ проверено
Размер: 1.37 GB
Как cкачать? Как скачать Вычислитель через торрент | qTorrent

% Раздел Тема Автор DL S | L
Наши новые фильмы 2014 [ 1.46 GB ] Вычислитель [2014 BDRip] [] Twi7ter Скачать
1 | 0
Наши фильмы (Blu-ray, BD-Remux, HDDVD) [ 14.86 GB ] Вычислитель [2014 BDRemux 1080i / ] Ворон Скачать
1 | 0
Наши новые фильмы 2014 [ 1.45 GB ] Вычислитель [2014 HDRip] coc900 Скачать
1 | 0
Наши фильмы (HD, WEB-DL 720p, 1080p) [ 2.91 GB ] Вычислитель [2014 BDRip 720p] [] potroks Скачать
1 | 0
Наши новые фильмы 2014 [ 1.45 GB ] Вычислитель [2014 Россия BDRip-AVC от sokol_ok] [] sokol_ok Скачать
2 | 0
Наши фильмы (Blu-ray, BD-Remux, HDDVD) [ 15.7 GB ] Вычислитель [2014 Blu-ray Оригинал] Бумер Скачать
1 | 0
T Наши фильмы (HD, WEB-DL 720p, 1080p) [ 2.68 GB ] Вычислитель [2014 Россия WEB-DL ] Anonymous Скачать
1 | 0

28-11-2019 20:33  

Отключить всю рекламу на сайте

28-07-2015 16:35 Вычислитель Скачать торрент  

не смогли бедолаги дотянуть этот середнячок хотя-бы до полутора часов полноценного фильма-и костолом не спас кино piratbit.pw





Последний раз редактировалось: sasha1966 (2015-07-28 18:14), всего редактировалось 1 раз

28-07-2015 17:11 Вычислитель Скачать торрент  

Newton5! В описании указано Дубляж [Blu-Ray] и дальше все,какой Blu-Ray откуда Blu-Ray,русский или какой?piratbit.pw



28-07-2015 17:50 Вычислитель Скачать торрент  

coc900 писал(а):

Newton5! В описании указано Дубляж [Blu-Ray] и дальше все,какой Blu-Ray откуда Blu-Ray,русский или какой?

Страна: Россия , как-бы намекает...ну вы поняли , да ? :Dpiratbit.pw



28-07-2015 18:42 Вычислитель Скачать торрент  

sarcasticpiratbit.pw





Последний раз редактировалось: potroks (2015-07-28 18:43), всего редактировалось 1 раз

28-07-2015 18:42 Вычислитель Скачать торрент  

coc900 писал(а):

Newton5! В описании указано Дубляж [Blu-Ray] и дальше все,какой Blu-Ray откуда Blu-Ray,русский или какой?

французкий блюр. так устраивает? разве в сети есть другой?piratbit.pw



28-07-2015 19:45 Вычислитель Скачать торрент  

Каменистая поверхность на скриншотах, не шибко похожа на болото.piratbit.pw



    Дорогой пользователь! Огромная просьба, поблагодарите релизера, оцените раздачу и оставьте свои комментарий, если Вы скачали Вычислитель через торрент бесплатно! Внесите свою лепту в развитие PiratBit!
    Комментировать посты могут только пользователи прошедшие не сложную регистрацию
    Показать сообщения:    

    Вычислитель через торрент
    Скачать бесплатно Вычислитель
    Вычислитель скачать торрент
    Вычислитель смотреть онлайн
    Cкачать фильм Вычислитель бесплатно
    Вычислитель скачать торрент в хорошем качестве
    Вычислитель смотреть онлайн бесплатно в хорошем качестве


    Вы не можете начинать темы
    Вы не можете отвечать на сообщения
    Вы не можете редактировать свои сообщения
    Вы не можете удалять свои сообщения
    Вы не можете голосовать в опросах
    Вы не можете прикреплять файлы к сообщениям
    Вы можете скачивать файлы