1 сезон

1 сезон

iTunes

1

КиноПоиск HD

Кинопоиск HD

iTunes

13

1 сезон

RePack

30

Ultimate

ВАЖНО

ИГРА 18+

pack

RePack

MK11
pack

Легкие деньги

RePack

jed

RePack

fifa19

RePack

RDR2

RePack

NEED FOR SPEED™ PAYBACK

4 сезон

9 сезон

Бесстыжие 9 сезон

Все сериалы

все сериалы на PB.wtf

RePack

FAR CRY 5
  
Magnet ссылка

Новичок / The Rookie (Клинт Иствуд) [1990 г., боевик, триллер, драма, комедия, криминал, HDRip, Авторский (Гаврилов)] piratbit.pw

Новичок через торрент piratbit.pw

Размер: 2.19 GB | Добавлен: 5 лет 8 мес. назад | Торрент скачан:3 раза
Скачать  

28-07-2015 12:14 Новичок Скачать торрент  

Новичок / The RookieГод выпуска: 1990
Страна: CША
Жанр: боевик, триллер, драма, комедия, криминал
Продолжительность: 02:00:45
Перевод: Авторский (Гаврилов)
Субтитры: Нет

Режиссер: Клинт Иствуд
Продюссер: Ховард Дж. Казанян, Стивен Сиберт, Дэвид Валдес
Сценарий: Боаз Якин, Скотт Шпигель

Премьера в мире: 7 декабря 1990



В ролях: Клинт Иствуд, Чарли Шин, Рауль Хулиа, Соня Брага, Том Скерритт, Лара Флинн Бойл, Пепе Серна, Марко Родригес, Пит Рэндалл, Донна Митчелл, Ксандер Беркли, Тони Плана, Дэвид Шерилл, Хэл Уильямс, Ллойд Нельсон, Мара Кордей, Джерри Шумахер, Мэтт МакКензи, Джоэл Полис, Джордан Лунд, Пол Бен-Виктор, Джинн Мори, Роберта Васкес, Джо Фараго

Описание: Детективу из Лос-Анджелеса, занимающемуся угонами дорогих машин Нику Пуловски после гибели его напарника дают в помощники новичка — Дэвида Аккермана. Дэвид — вполне благополучный юноша из богатой семьи, окончивший университет, в детстве стал невольным виновником гибели брата. Он испытывает страх и угрызения совести. Переплет, в который они с Ником попадают, преследуя главаря банды угонщиков Строма, заставляют его побороть страх. Рискуя жизнью, Дэвид в одиночку идет на выручку Нику, которого Стром взял в заложники. Он не только помогает Нику избежать гибели, но вдвоем они расправляются с бандой и ее главарем…

Качество: HDRip | BDRip 720p
Формат: AVI
Видео кодек: XviD
Аудио кодек: AC3
Видео: 720x304 (2.37:1), 23.976 fps, XviD build 50 ~2208 kbps avg, 0.42 bit/pixel
Аудио: 48 kHz, AC3 Dolby Digital, 3/2 (L,C,R,l,r) + LFE ch, ~384 kbps


Автор рипа: Dean24





Общее
Полное имя : D:\Мои документы\Фильмы\Сайт\The.Rookie.HDRip.avi
Формат : AVI
Формат/Информация : Audio Video Interleave
Профиль формата : OpenDML
Размер файла : 2,19 Гбайт
Продолжительность : 2 ч. 0 м.
Общий поток : 2599 Кбит/сек
Программа кодирования : VirtualDubMod 1.5.10.3 | (build 2550/release)
Библиотека кодирования : VirtualDubMod build 2550/release

Видео
Идентификатор : 0
Формат : MPEG-4 Visual
Профиль формата : Advanced Simple@L5
Параметр BVOP формата : 3
Параметр QPel формата : Нет
Параметр GMC формата : Без точки перехода
Параметр матрицы формата : Default (H.263)
Идентификатор кодека : XVID
Идентификатор кодека/Подсказка : XviD
Продолжительность : 2 ч. 0 м.
Битрейт : 2203 Кбит/сек
Ширина : 720 пикселей
Высота : 304 пикселя
Соотношение сторон : 2,35:1
Частота кадров : 23,976 кадра/сек
Цветовое пространство : YUV
Субдискретизация насыщенности : 4:2:0
Битовая глубина : 8 бит
Тип развёртки : Прогрессивная
Метод сжатия : С потерями
Бит/(Пиксели*Кадры) : 0.420
Размер потока : 1,86 Гбайт (85%)
Библиотека кодирования : XviD 1.2.1 (UTC 2008-12-04)

Аудио
Идентификатор : 1
Формат : AC-3
Формат/Информация : Audio Coding 3
Расширение режима : CM (complete main)
Параметр Endianness формата : Big
Идентификатор кодека : 2000
Продолжительность : 2 ч. 0 м.
Вид битрейта : Постоянный
Битрейт : 384 Кбит/сек
Каналы : 6 каналов
Расположение каналов : Front: L C R, Side: L R, LFE
Частота : 48,0 КГц
Битовая глубина : 16 бит
Метод сжатия : С потерями
Размер потока : 332 Мбайт (15%)
Выравнивание : Разделение по промежуткам
Продолжительность промежутка : 42 мс. (1,00 видеокадр)
Время предзагрузки промежутка : 500 мс.

piratbit.pw



Скачать Новичок через торрент http://i71.fastpic.ru/big/2015/0728/38/25242ccea02d0053442ba463afeb7838.jpg Скачать фильм Новичок через торрент бесплантно в хорошем качестве Описание: Детективу из Лос-Анджелеса, занимающемуся угонами дорогих машин Нику Пуловски после гибели его напарника дают в помощники новичка ... 10 10 3
Торрент: Зарегистрирован [2015-07-28 12:14] · скачан: 3 раз
Статус: √ проверено
Размер: 2.19 GB
Как cкачать? Как скачать Новичок через торрент | UTorrent

% Раздел Тема Автор DL S | L
Зарубежные сериалы [ 3.09 GB ] Новобранец / Новичок / The Rookie / Сезон: 3 / Серии: 1- из 20 [2021 WEB-DL 1080p] MVO [HDrezka Studio] bober100 Скачать
1 | 0
Зарубежные сериалы [ 52.69 GB ] Новичок / Новобранец / The Rookie / Сезон: 1 / Серии: 1-20 из 20 [2018 WEB-DL 1080p] MVO [Lostfilm] bober100 Скачать
1 | 0
Зарубежные сериалы [ 48.46 GB ] Новобранец / Новичок / The Rookie / Сезон: 2 / Серии: 1-20 из 20 [2019 WEB-DL 1080p] MVO [Lostfilm] bober100 Скачать
2 | 0
Зарубежные сериалы [ 11.95 GB ] Новобранец / Новичок / The Rookie / Сезон: 2 / Серии: 1-20 из 20 [2019 WEB-DLRip] MVO [LostFilm] bober100 Скачать
1 | 0
Зарубежные сериалы [ 44.33 GB ] Новобранец / Новичок / The Rookie / Сезон: 2 / Серии: 1-15 из 20 [2019 WEB-DL 1080p] MVO [TVShows] bober100 Скачать
1 | 0
Зарубежные сериалы [ 23.47 GB ] Новобранец / Новичок / The Rookie / Сезон: 2 / Серии: 1-15 из 20 [2019 WEB-DL 720p] MVO [TVShows] bober100 Скачать
1 | 0
Зарубежные сериалы [ 16.13 GB ] Новобранец / Новичок / The Rookie / Сезон: 2 / Серии: 1-9 из 13 [2019 WEB-DL 720p] 2xMVO [LostFilm HDRezka Studio] bober100 Скачать
1 | 0

28-11-2019 20:33  

Отключить всю рекламу на сайте

    Дорогой пользователь! Огромная просьба, поблагодарите релизера, оцените раздачу и оставьте свои комментарий, если Вы скачали Новичок через торрент бесплатно! Внесите свою лепту в развитие PiratBit!
    Комментировать посты могут только пользователи прошедшие не сложную регистрацию
    Показать сообщения:    

    Новичок через торрент
    Скачать бесплатно Новичок
    Новичок скачать торрент
    Новичок смотреть онлайн
    Cкачать фильм Новичок бесплатно
    Новичок скачать торрент в хорошем качестве
    Новичок смотреть онлайн бесплатно в хорошем качестве


    Вы не можете начинать темы
    Вы не можете отвечать на сообщения
    Вы не можете редактировать свои сообщения
    Вы не можете удалять свои сообщения
    Вы не можете голосовать в опросах
    Вы не можете прикреплять файлы к сообщениям
    Вы можете скачивать файлы