Ссылка на приватное зеркало нашего сайта всего за 1$. Внимание количество ограничено!!!

2 сезон

iTunes

1 сезон

1

iTunes

iTunes

iTunes

1 сезон

RePack

30

ИГРА 18+

pack

ВАЖНО

!!Акция!!

Alien_RageХит недели

RePack

MK11
pack

Забери бонус

RePack

jed

!!Акция!!

Alien_Rage

RePack

fifa19

RePack

Assassins Creed: Odyssey

RePack

NEED FOR SPEED™ PAYBACK

4 сезон

9 сезон

Бесстыжие 9 сезон

Все сериалы

все сериалы на PB.wtf

RePack

FAR CRY 5
  

Вычислитель (Дмитрий Грачев) [2014 г., фантастика, HDRip,Лицензия] piratbit.pw

Вычислитель через торрент piratbit.pw

Размер: 1.45 GB | Добавлен: 5 лет 3 мес. назад | Торрент скачан:161 раз
Скачать  

27-07-2015 17:40 Вычислитель Скачать торрент  

Вычислитель
Год выпуска: 2014
Страна: Россия / Art Pictures Studio
Жанр: фантастика
Продолжительность: 01:23:12
Перевод:Оригинал (Лицензия)
Режиссер: Дмитрий Грачев

IMDB 4.20 (229)


В ролях: Евгений Миронов, Анна Чиповская, Винни Джонс, Никита Панфилов, Кирилл Козаков, Иван Верховых, Владас Багдонас, Ирене Мускара, Линда Нигматулина, Алексей Колубков, Сергей Чихачев

Описание: Десять заключенных, приговоренных к пожизненному изгнанию с планеты XT-59, отправляются в опасный путь через Саргассово Болото. Группа сразу делится на две части: Эрвин и Кристи идут на поиск Счастливых Островов, Юст ведет остальных к Гнилой Мели. Однако долгое время их маршруты практически совпадают. В первый же вечер Эрвин понимает, что его должны убить — в прошлой жизни он занимал слишком высокий пост, и теперь он опасен для тех, кто пришел к власти. Выбрав в попутчицы Кристи, он сразу старается уйти подальше от остальных членов группы, чтобы обезопасить себя. На пути к Счастливым островам герои преодолевают массу препятствий. Цена этому — свобода и счастье.

Качество: HDRip
Формат: AVI
Видео кодек: XviD
Аудио кодек: AC3
Видео: 720x304 (2.37:1), 25 fps, XviD build 50 ~2039 kbps avg, 0.37 bit/pixel
Аудио: 48 kHz, AC3 Dolby Digital, 3/2 (L,C,R,l,r) + LFE ch, ~448 kbps

Общее
Полное имя : F:\кино\Вычислитель.2014.HDRip.avi
Формат : AVI
Формат/Информация : Audio Video Interleave
Размер файла : 1,45 Гбайт
Продолжительность : 1 ч. 23 м.
Общий поток : 2498 Кбит/сек
Программа кодирования : VirtualDubMod 1.5.10.3 | www.virtualdub-fr.org || (build 2550/release)
Библиотека кодирования : VirtualDubMod build 2550/release

Видео
Идентификатор : 0
Формат : MPEG-4 Visual
Профиль формата : Advanced Simple@L5
Параметр BVOP формата : 2
Параметр QPel формата : Нет
Параметр GMC формата : Без точки перехода
Параметр матрицы формата : Default (H.263)
Идентификатор кодека : XVID
Идентификатор кодека/Подсказка : XviD
Продолжительность : 1 ч. 23 м.
Битрейт : 2040 Кбит/сек
Ширина : 720 пикселей
Высота : 304 пикселя
Соотношение сторон : 2,35:1
Частота кадров : 25,000 кадров/сек
Цветовое пространство : YUV
Субдискретизация насыщенности : 4:2:0
Битовая глубина : 8 бит
Тип развёртки : Прогрессивная
Метод сжатия : С потерями
Бит/(Пиксели*Кадры) : 0.373
Размер потока : 1,19 Гбайт (82%)
Библиотека кодирования : XviD 1.2.1 (UTC 2008-12-04)

Аудио
Идентификатор : 1
Формат : AC-3
Формат/Информация : Audio Coding 3
Расширение режима : CM (complete main)
Параметр Endianness формата : Big
Идентификатор кодека : 2000
Продолжительность : 1 ч. 23 м.
Вид битрейта : Постоянный
Битрейт : 448 Кбит/сек
Каналы : 6 каналов
Расположение каналов : Front: L C R, Side: L R, LFE
Частота : 48,0 КГц
Метод сжатия : С потерями
Размер потока : 267 Мбайт (18%)
Выравнивание : Разделение по промежуткам
Продолжительность промежутка : 40 мс. (1,00 видеокадр)
Время предзагрузки промежутка : 500 мс.

piratbit.pw



Скачать Вычислитель через торрент http://pic1.kartinco.top/images/10/y3rly.jpg Скачать фильм Вычислитель через торрент бесплантно в хорошем качестве Описание: Десять заключенных, приговоренных к пожизненному изгнанию с планеты XT-59, отправляются в опасный путь через Саргассово Болото. ... 8.4 10 10
Торрент: Зарегистрирован [2015-07-27 17:40] · скачан: 161 раз
Статус: √ проверено
Размер: 1.45 GB
Как cкачать? Как скачать Вычислитель через торрент | qTorrent

% Раздел Тема Автор DL S | L
Наши новые фильмы 2014 [ 1.46 GB ] Вычислитель [2014 BDRip] [] Twi7ter Скачать
1 | 0
Наши фильмы (Blu-ray, BD-Remux, HDDVD) [ 14.86 GB ] Вычислитель [2014 BDRemux 1080i / ] Ворон Скачать
1 | 0
Наши новые фильмы 2014 [ 1.37 GB ] Вычислитель [2014 BDRip-AVC] [] potroks Скачать
1 | 0
Наши фильмы (HD, WEB-DL 720p, 1080p) [ 2.91 GB ] Вычислитель [2014 BDRip 720p] [] potroks Скачать
1 | 0
Наши новые фильмы 2014 [ 1.45 GB ] Вычислитель [2014 Россия BDRip-AVC от sokol_ok] [] sokol_ok Скачать
2 | 0
Наши фильмы (Blu-ray, BD-Remux, HDDVD) [ 15.7 GB ] Вычислитель [2014 Blu-ray Оригинал] Бумер Скачать
1 | 0
T Наши фильмы (HD, WEB-DL 720p, 1080p) [ 2.68 GB ] Вычислитель [2014 Россия WEB-DL ] Anonymous Скачать
1 | 0


Последний раз редактировалось: coc900 (2015-07-27 18:14), всего редактировалось 1 раз

28-11-2019 20:33  

Отключить всю рекламу на сайте

27-07-2015 20:08 Вычислитель Скачать торрент  

может он китаецpiratbit.pw



27-07-2015 20:16 Вычислитель Скачать торрент  

Цитата:

Вычислитель (Дмитрий Грачев) [2014 г., фантастика, HDRip,Лицензия]

надрывные потуги современного российского фантастического жанра,после "Москва-Кассиопея"-умершего...piratbit.pw



27-07-2015 20:29 Вычислитель Скачать торрент  

от души снятая хрень...от жалкой такой душонки...фильм для неискушенного зрителя, эдакое очередное отмывание бабла...ляпов- тьма. тупизма- выше крыши... люди в такой ситуации себя не ведут так...разве что в фильмах студии Ассилум...но там и то адекватней бывает...Мое индивидуальное мнение- булщит......piratbit.pw



27-07-2015 21:15 Вычислитель Скачать торрент  

faraon8383 писал(а):

Newton5 писал(а):

Укажите качество перевода в названии и описании, пожалуйста.

Какое качество перевода, если фильм русский

Перевод ОБЯЗАТЕЛЕН присутствовать в описании релиза, по правилам оформления раздач. Шаблон оформления-Кино, Видео и ТВ piratbit.pw



29-07-2015 19:28 Вычислитель Скачать торрент  

ты втираеш мне какую-то дичь!piratbit.pw



    Дорогой пользователь! Огромная просьба, поблагодарите релизера, оцените раздачу и оставьте свои комментарий, если Вы скачали Вычислитель через торрент бесплатно! Внесите свою лепту в развитие PiratBit!
    Комментировать посты могут только пользователи прошедшие не сложную регистрацию
    Показать сообщения:    

    Вычислитель через торрент
    Скачать бесплатно Вычислитель
    Вычислитель скачать торрент
    Вычислитель смотреть онлайн
    Cкачать фильм Вычислитель бесплатно
    Вычислитель скачать торрент в хорошем качестве
    Вычислитель смотреть онлайн бесплатно в хорошем качестве


    Вы не можете начинать темы
    Вы не можете отвечать на сообщения
    Вы не можете редактировать свои сообщения
    Вы не можете удалять свои сообщения
    Вы не можете голосовать в опросах
    Вы не можете прикреплять файлы к сообщениям
    Вы можете скачивать файлы