1 сезон

3 сезон

iTunes

1

iTunes

DUB Netflix

iTunes

13

1 сезон

RePack

30

Deluxe

pack

Легкие деньги

ВАЖНО

ИГРА 18+

pack

RePack

MK11

RePack

jed

RePack

fifa19

RePack

RDR2

RePack

NEED FOR SPEED™ PAYBACK

4 сезон

9 сезон

Бесстыжие 9 сезон

Все сериалы

все сериалы на PB.wtf

RePack

FAR CRY 5

Anonymous, добрый вечер, мы не успеваем до 1 числа собрать деньги на оплату серверов, помогите нам пожалуйста в это трудное время. В качестве благодарности мы отключим Вам всю рекламу на сайте (укажите свой ник в строку Ваше имя)!

×
  
Magnet ссылка

Теркс и Кайкос / Turks & Caicos (Дэвид Хэа) [2014, боевик, триллер, драма, BDRip] VO piratbit.pw

Теркс и Кайкос через торрент piratbit.pw

Размер: 1.45 GB | Добавлен: 5 лет 10 мес. назад | Торрент скачан:73 раза
Скачать  

26-07-2015 10:35 Теркс и Кайкос Скачать торрент  

Теркс и Кайкос / Turks & Caicos

Год выпуска: 2014
Страна: Великобритания
Жанр: боевик, триллер, драма, детектив
Продолжительность: 01:39:22
Перевод: Любительский (одноголосый)
Режиссер: Дэвид Хэа
В ролях: Вайнона Райдер (Melanie Fall), Кристофер Уокен (Curtis Pelissier), Билл Найи (Johnny Worricker), Hansel Piper (Aldous Helier), Дилан Бейкер (Gary Bethwaite), Джеймс Нафтон (Frank Church), Зэк Гренье (Dido Parsons), Джули Хьюлетт (Natalie Helier), Хелена Бонем Картер (Margot Tyrrell), Руперт Грейвз (Stirling Rogers), Sally Greenwood (Singer), Юэн Бремнер (Rollo Maverley)
Описание:
После событий первого фильма, «Страница 8», офицер британской контрразведки Джонни Уоррикер залёг на дно, обитая на островах Теркс и Кайкос в Карибском море. Однажды с ним на связь выйдет агент ЦРУ, из-за которого Уоррикер окажется в компании сомнительных американских бизнесменов. На утро одного из них найдут мёртвым, а в деле снова окажется замешан британский премьер-минист Алек Бизли .

Качество: BDRip
Формат: AVI
Видео кодек: XviD
Аудио кодек: AC3
Видео: XviD, 720x304 (2.35:1), 1438 kbps, 23,976 fps, 0,274 bpp
Аудио №1: Русский: AC3 / 2.0 / 48 kHz / 192 kbps / 16 bit
Аудио №2: Английский: AC3 / 5.1 / 48 kHz / 448 kbps / 16 bit


Код:

General
Complete name                            : E:\торент\Turks.Caicos.2014.BDRip.avi
Format                                   : AVI
Format/Info                              : Audio Video Interleave
Format profile                           : OpenDML
Format settings                          : rec
File size                                : 1.45 GiB
Duration                                 : 1h 39mn
Overall bit rate                         : 2 085 Kbps
Writing application                      : AVI-Mux GUI 1.17.8.3, Feb 16 201019:42:50

Video
ID                                       : 0
Format                                   : MPEG-4 Visual
Format profile                           : Advanced Simple@L5
Format settings, BVOP                    : 1
Format settings, QPel                    : No
Format settings, GMC                     : No warppoints
Format settings, Matrix                  : Default (H.263)
Codec ID                                 : XVID
Codec ID/Hint                            : XviD
Duration                                 : 1h 39mn
Bit rate                                 : 1 438 Kbps
Width                                    : 720 pixels
Height                                   : 304 pixels
Display aspect ratio                     : 2.35:1
Frame rate                               : 23.976 fps
Color space                              : YUV
Chroma subsampling                       : 4:2:0
Bit depth                                : 8 bits
Scan type                                : Progressive
Compression mode                         : Lossy
Bits/(Pixel*Frame)                       : 0.274
Stream size                              : 1 022 MiB (69%)
Writing library                          : XviD 1.2.1 (UTC 2008-12-04)

Audio #1
ID                                       : 1
Format                                   : AC-3
Format/Info                              : Audio Coding 3
Mode extension                           : CM (complete main)
Codec ID                                 : 2000
Duration                                 : 1h 39mn
Bit rate mode                            : Constant
Bit rate                                 : 192 Kbps
Channel(s)                               : 2 channels
Channel positions                        : Front: L R
Sampling rate                            : 48.0 KHz
Bit depth                                : 16 bits
Compression mode                         : Lossy
Stream size                              : 136 MiB (9%)
Alignment                                : Aligned on interleaves
Interleave, duration                     : 64 ms (1.53 video frames)
Interleave, preload duration             : 192 ms
Title                                    : bd_levelin_192

Audio #2
ID                                       : 2
Format                                   : AC-3
Format/Info                              : Audio Coding 3
Mode extension                           : CM (complete main)
Codec ID                                 : 2000
Duration                                 : 1h 39mn
Bit rate mode                            : Constant
Bit rate                                 : 448 Kbps
Channel(s)                               : 6 channels
Channel positions                        : Front: L C R, Side: L R, LFE
Sampling rate                            : 48.0 KHz
Bit depth                                : 16 bits
Compression mode                         : Lossy
Stream size                              : 318 MiB (21%)
Alignment                                : Aligned on interleaves
Interleave, duration                     : 64 ms (1.53 video frames)
Interleave, preload duration             : 192 ms
Title                                    : eng448

piratbit.pw



Скачать Теркс и Кайкос через торрент https://pic1.kartinco.top/images/10/bo1ya.jpg Скачать фильм Теркс и Кайкос через торрент бесплантно в хорошем качестве Описание: После событий первого фильма, «Страница 8», офицер британской контрразведки Джонни Уоррикер залёг на дно, обитая на островах ... 10 10 6
Торрент: Зарегистрирован [2015-07-26 10:35] · скачан: 73 раз
Статус: √ проверено
Размер: 1.45 GB
Как cкачать? Как скачать Теркс и Кайкос через торрент | UTorrent

28-11-2019 20:33  

Отключить всю рекламу на сайте

    Дорогой пользователь! Огромная просьба, поблагодарите релизера, оцените раздачу и оставьте свои комментарий, если Вы скачали Теркс и Кайкос через торрент бесплатно! Внесите свою лепту в развитие PiratBit!
    Комментировать посты могут только пользователи прошедшие не сложную регистрацию
    Показать сообщения:    

    Теркс и Кайкос через торрент
    Скачать бесплатно Теркс и Кайкос
    Теркс и Кайкос скачать торрент
    Теркс и Кайкос смотреть онлайн
    Cкачать фильм Теркс и Кайкос бесплатно
    Теркс и Кайкос скачать торрент в хорошем качестве
    Теркс и Кайкос смотреть онлайн бесплатно в хорошем качестве


    Вы не можете начинать темы
    Вы не можете отвечать на сообщения
    Вы не можете редактировать свои сообщения
    Вы не можете удалять свои сообщения
    Вы не можете голосовать в опросах
    Вы не можете прикреплять файлы к сообщениям
    Вы можете скачивать файлы