Ссылка на приватное зеркало нашего сайта всего за 1$. Внимание количество ограничено!!!

2 сезон

iTunes

iTunes

1

iTunes

iTunes

iTunes

WEBRip

iTunes

30
pack

Новость дня

ВАЖНО

!!Акция!!

Alien_RageХит недели

RePack

Horizon Zero Dawn

ИГРА 18+

pack

RePack

jed

!!Акция!!

Alien_Rage

RePack

fifa19

RePack

Assassins Creed: Odyssey

RePack

NEED FOR SPEED™ PAYBACK

4 сезон

9 сезон

Бесстыжие 9 сезон

Все сериалы

все сериалы на PB.wtf

RePack

FAR CRY 5
  

Бармен (Дина Штурманова) [2015, комедия, WEB-DL 1080p, ] [iTunes] piratbit.pw

Бармен через торрент piratbit.pw

Раздают: 1 [ 0 KB/s ]
Размер: 3.13 GB | Добавлен: 5 лет 1 мес. назад | Торрент скачан:1564 раза
Скачать  

25-07-2015 22:01 Бармен Скачать торрент  

Бармен

Год выпуска: 2015
Страна: Россия
Жанр: комедия, фэнтези
Продолжительность: 01:31:57
Перевод: Не требуется / iTunes
Режиссер: Дина Штурманова
В ролях: Виталий Гогунский (Вадик), Иван Охлобыстин (бармен), Юлия Паршута (Юлия), Юрий Стоянов (папа Юлии), Жанна Эппле (мама Юлии), Константин Крюков (Артур), Антон Богданов (Рома), Ольга Бузова (Вика), Евгения Ярушникова (Лера), Константин Федоров (Кабан), Константин Соколов (Валера), Евгений Кравченко (Бум)
Описание:
Вадик мечтает изменить свою скучную жизнь, но страх неудачи и неуверенность в себе мешают парню двигаться к цели. Все меняется, когда Вадик случайно забредает в пустой бар и выпивает коктейль по рецепту загадочного Бармена. Отныне он - мистер Харизма, и весь мир лежит у его ног. Даже красавица Юля, о которой раньше он не смел и мечтать, обратила на него внимание. Новый коктейль - новый талант: сегодня Вадик - интеллектуал, завтра - король танцпола... Вот только действуют волшебные напитки недолго и имеют не очень приятный побочный эффект...

Качество: WEB-DL 1080p
Формат: MKV
Видео кодек: AVC
Аудио кодек: AC3
Видео: AVC, 1920x800 (2.40:1), 4386 kbps, 24 fps, 0,119 bpp
Аудио: русский / AC3 / 5.1 / 48 kHz / 384 kbps / 16 bit ||
Навигация по главам: есть

Код:

General
Unique ID                                : 171470759472496781133504012653343021141 (0x810011289520C28FB94BEF1811E41855)
Complete name                            : E:\торент\Barm3n.2015.O.WEB-DL.1080p.mkv
Format                                   : Matroska
Format version                           : Version 4 / Version 2
File size                                : 3.13 GiB
Duration                                 : 1h 31mn
Overall bit rate                         : 4 867 Kbps
Encoded date                             : UTC 2015-07-15 18:42:20
Writing application                      : mkvmerge v6.9.1 ('Blue Panther') 64bit built on Apr 18 2014 18:23:38
Writing library                          : libebml v1.3.0 + libmatroska v1.4.1

Video
ID                                       : 1
Format                                   : AVC
Format/Info                              : Advanced Video Codec
Format profile                           : High@L4.0
Format settings, CABAC                   : Yes
Format settings, ReFrames                : 5 frames
Codec ID                                 : V_MPEG4/ISO/AVC
Duration                                 : 1h 31mn
Bit rate                                 : 4 386 Kbps
Width                                    : 1 920 pixels
Height                                   : 800 pixels
Display aspect ratio                     : 2.40:1
Frame rate                               : 24.000 fps
Color space                              : YUV
Chroma subsampling                       : 4:2:0
Bit depth                                : 8 bits
Scan type                                : Progressive
Bits/(Pixel*Frame)                       : 0.119
Stream size                              : 2.82 GiB (90%)
Language                                 : English
Default                                  : Yes
Forced                                   : No
Color primaries                          : BT.709-5, BT.1361, IEC 61966-2-4, SMPTE RP177
Transfer characteristics                 : BT.709-5, BT.1361
Matrix coefficients                      : BT.709-5, BT.1361, IEC 61966-2-4 709, SMPTE RP177

Audio
ID                                       : 2
Format                                   : AC-3
Format/Info                              : Audio Coding 3
Mode extension                           : CM (complete main)
Codec ID                                 : A_AC3
Duration                                 : 1h 31mn
Bit rate mode                            : Constant
Bit rate                                 : 384 Kbps
Channel(s)                               : 6 channels
Channel positions                        : Front: L C R, Side: L R, LFE
Sampling rate                            : 48.0 KHz
Bit depth                                : 16 bits
Compression mode                         : Lossy
Stream size                              : 253 MiB (8%)
Language                                 : Russian
Default                                  : Yes
Forced                                   : No

Menu
00:00:00.000                             : en:Глава 1
00:04:23.000                             : en:Глава 2
00:10:33.000                             : en:Глава 3
00:15:18.000                             : en:Глава 4
00:21:28.000                             : en:Глава 5
00:26:21.000                             : en:Глава 6
00:30:32.000                             : en:Глава 7
00:35:38.000                             : en:Глава 8
00:39:54.000                             : en:Глава 9
00:45:20.000                             : en:Глава 10
00:51:52.000                             : en:Глава 11
00:56:16.000                             : en:Глава 12
01:02:50.000                             : en:Глава 13
01:07:58.000                             : en:Глава 14
01:14:00.000                             : en:Глава 15
01:19:05.000                             : en:Глава 16
01:25:17.000                             : en:Глава 17

скриншот   скриншот   скриншот   скриншот   скриншот  
piratbit.pw



Скачать Бармен через торрент http://pic1.kartinco.top/images/10/uy3ty.jpg Скачать фильм Бармен через торрент бесплантно в хорошем качестве Описание: Вадик мечтает изменить свою скучную жизнь, но страх неудачи и неуверенность в себе мешают парню двигаться к цели. Все меняется, ... 9.5 10 36
Info! Золотая раздача, скачанное не засчитывается.
Торрент: Зарегистрирован [2015-07-25 22:01] · скачан: 1 564 раз
Статус: √ проверено
Размер: 3.13 GB
Как cкачать? Как скачать Бармен через торрент | qTorrent

% Раздел Тема Автор DL S | L
Наши новые фильмы 2015 [ 1.46 GB ] Бармен [2015 DVDRip] smaster Скачать
1 | 0
Наши фильмы (DVD фильмы) [ 5.83 GB ] Бармен [2015 DVD9] R5 voovaz Скачать
1 | 1
Наши новые фильмы 2015 [ 1.37 GB ] Бармен [2015 WEB-DLRip ] Ворон Скачать
1 | 0
Наши фильмы (HD, WEB-DL 720p, 1080p) [ 2.87 GB ] Бармен [2015 WEB-DL 720p ] Ворон Скачать
1 | 0
Наши новые фильмы 2015 [ 1.71 GB ] Бармен [2015 WEB-DLRip-AVC от ExKinoRay / Russia] Ворон Скачать
1 | 0
Домашнее порно [ 276 MB ] Бармен я тебя хочу. [2014 Amateur Big Boobs Reality Classic Hidden Camera/ CamRip] Pir@tya2010 Скачать
1 | 0
Порно фильмы без сюжета [ 1017 MB ] Ебyт Мою Жену Барменшу / Fuck My Wife I'll Do The Barmaid [2013 All Sex Foreign Cuckold Anal DP DVDRip Оригинал] 19alexei87 Скачать
1 | 0

28-11-2019 20:33  

Отключить всю рекламу на сайте

27-07-2015 16:32 Бармен Скачать торрент  

Прикольный фильмец.piratbit.pw



    Дорогой пользователь! Огромная просьба, поблагодарите релизера, оцените раздачу и оставьте свои комментарий, если Вы скачали Бармен через торрент бесплатно! Внесите свою лепту в развитие PiratBit!
    Комментировать посты могут только пользователи прошедшие не сложную регистрацию
    Показать сообщения:    

    Бармен через торрент
    Скачать бесплатно Бармен
    Бармен скачать торрент
    Бармен смотреть онлайн
    Cкачать фильм Бармен бесплатно
    Бармен скачать торрент в хорошем качестве
    Бармен смотреть онлайн бесплатно в хорошем качестве


    Вы не можете начинать темы
    Вы не можете отвечать на сообщения
    Вы не можете редактировать свои сообщения
    Вы не можете удалять свои сообщения
    Вы не можете голосовать в опросах
    Вы не можете прикреплять файлы к сообщениям
    Вы можете скачивать файлы