Ссылка на приватное зеркало нашего сайта всего за 1$. Внимание количество ограничено!!!

2 сезон

iTunes

1 сезон

1

2 сезон

2 сезон

iTunes

1 сезон

RePack

30

Новинка

ВАЖНО

ИГРА 18+

pack

RePack

MK11
pack

Забери бонус

RePack

jed

!!Акция!!

Alien_Rage

RePack

fifa19

RePack

Assassins Creed: Odyssey

RePack

NEED FOR SPEED™ PAYBACK

4 сезон

9 сезон

Бесстыжие 9 сезон

Все сериалы

все сериалы на PB.wtf

RePack

FAR CRY 5
  

Сборник мультфильмов (Михаил Цехановский, Фёдор Хитрук, Борис Дежкин...) [1951-1976, СССР, мультфильм, короткометражка, DVDRip от AVP Studio] piratbit.pw

Сборник мультфильмов через торрент piratbit.pw

Размер: 4.35 GB | Добавлен: 5 лет 3 мес. назад | Торрент скачан:45 раз
Скачать  

24-07-2015 14:11 Сборник мультфильмов Скачать торрент  

Сборник мультфильмов
Страна: СССР
Производство: Союзмультфильм

Жанр: мультфильм, короткометражка
Год выпуска: 1951-1976
Продолжительность: 04:59:05 (13 мультфильмов)

Перевод: Не требуется
Cубтитры: нет
Оригинальная аудиодорожка: русский

Режиссер: Михаил Цехановский, Фёдор Хитрук, Борис Дежкин...

Описание: «Союзмультфильм» — крупнейшая в СССР студия мультипликационных фильмов, основанная в Москве 10 июня 1936 года. Студия создана 10 июня 1936 года с названием — «Союздетмультфильм» (из объединения мелких коллективов Мосфильма, Совкино и Межрабпромфильма), а с 20 августа 1937 года ее переименовали в «Союзмультфильм». Хотя приказ о создании студии был подписан начальником Главного Управления кинофотопромышленности, считается, что решение о создании студии мультипликационных фильмов исходило лично от И. В. Сталина. Для студии были выделены помещения закрытых Советской властью храмов: Николая Чудотворца в Новой слободе на Долгоруковской улице (в советское время — Каляевской улице), где находилось производство рисованных фильмов, и Спаса Преображения «что на Песках» в Спасопесковском переулке на Арбате, где располагалось «Творческое объединение кукольных фильмов». Храм на Арбате в 1991 году был возвращен Русской Православной Церкви, а храм на ул. Долгоруковской не возвращен РПЦ до сих пор, хотя решения о необходимости, в принципе, вернуть Церкви отнятые у неё храмы принимались уже более 15 лет назад. В настоящее время здание на Долгоруковской ул. дом 25 находится в федеральной собственности и закреплено на праве хозяйственного ведения за ФГУП "ТПО "Киностудия «Союзмультфильм».
Первый мультфильм, выпущенный студией, назывался «В Африке жарко» (1936 год). С 1937 года начали выпускаться цветные мультфильмы. На студии снято более 1500 мультфильмов.

Источник: DVD5 R5
Качество видео: DVDRip
Формат видео: AVI
Видео кодек: XviD
Аудио кодек: AC3
Видео: 704x528 (4:3), 25 fps, XviD ~ 1785 kbps avg, 0.192 bit/pixel
Аудио: 48 kHz, Dolby Digital AC3 2.0, 192 kbps

Раздача от:
01. Кто первый (1950) 0:09:39
02. Ночь перед Рождеством (1951) 0:45:57
03. Валидуб (1952) 0:19:54
04. Лесной концерт (1953) 0:10:14
05. Полет на Луну (1953) 0:29:29
06. Волшебная птица (1953) 0:19:10
07. Крашеный лис (1953) 0:10:07
08. Храбрый Пак (1953) 0:20:13
09. Храбрый олененок (1957) 0:20:08
10. Человечка нарисовал я (1960) 0:52:39
11. Три толстяка (1963) 0:34:09
12. Снежные дорожки (1963) 0:10:00
13. Лягушка-путешественница (1965) 0:17:26
Общее
Полное имя : Sbornik.multfilmov.1951-1976.DVDRip_[New-team]_by_AVP_Studio.avi
Формат : AVI
Формат/Информация : Audio Video Interleave
Размер файла : 280 Мбайт
Продолжительность : 17 м.
Общий поток : 2242 Кбит/сек
Программа кодирования : VirtualDubMod 1.5.10.3 | www.virtualdub-fr.org || (build 2550/release)
Библиотека кодирования : VirtualDubMod build 2550/release

Видео
Идентификатор : 0
Формат : MPEG-4 Visual
Профиль формата : Advanced Simple@L5
Параметр BVOP формата : 1
Параметр QPel формата : Нет
Параметр GMC формата : Без точки перехода
Параметр матрицы формата : Выборочная
Идентификатор кодека : XVID
Идентификатор кодека/Подсказка : XviD
Продолжительность : 17 м.
Битрейт : 1785 Кбит/сек
Ширина : 704 пикселя
Высота : 528 пикселей
Соотношение сторон : 4:3
Частота кадров : 25,000 кадров/сек
Цветовое пространство : YUV
Субдискретизация насыщенности : 4:2:0
Битовая глубина : 8 бит
Тип развёртки : Прогрессивная
Метод сжатия : С потерями
Бит/(Пиксели*Кадры) : 0.192
Размер потока : 223 Мбайт (80%)
Библиотека кодирования : XviD 73

Аудио
Идентификатор : 1
Формат : AC-3
Формат/Информация : Audio Coding 3
Расширение режима : CM (complete main)
Параметр Endianness формата : Big
Идентификатор кодека : 2000
Продолжительность : 17 м.
Вид битрейта : Постоянный
Битрейт : 192 Кбит/сек
Каналы : 2 канала
Расположение каналов : Front: L, R
Частота : 48,0 КГц
Метод сжатия : С потерями
Размер потока : 55,9 Мбайт (20%)
Выравнивание : Разделение по промежуткам
Продолжительность промежутка : 40 мс. (1,00 видеокадр)
Время предзагрузки промежутка : 500 мс
piratbit.pw



Скачать Сборник мультфильмов через торрент http://s020.radikal.ru/i713/1507/b7/ca70ba825789.png Скачать фильм Сборник мультфильмов через торрент бесплантно в хорошем качестве Описание: «Союзмультфильм» — крупнейшая в СССР мульликационных фильмов, основанная в Москве 10 июня 1936 года. Студия создана 10 ... 10 10 3
Торрент: Зарегистрирован [2015-07-24 14:11] · скачан: 45 раз
Статус: √ проверено
Размер: 4.35 GB
Как cкачать? Как скачать Сборник мультфильмов через торрент | qTorrent

% Раздел Тема Автор DL S | L
Мультсериалы [ 69.15 GB ] Веселые дии / Looney Tunes / Серии: 1-592 из ? [1931-2011 мультфильм короткометражка BDRip DVDRip от keeper.52] MVO+Original+SUB keeper.52 Скачать
2 | 0
Наши мультфильмы [ 6.08 GB ] Гора самоцветов / Сборник мультфильмов [2004 - 2009 мультфильм DVDRip-AVC] nn99nn Скачать
1 | 0
Наши мультфильмы [ 868 MB ] 38 попугаев. Сборник мультфильмов [1978-1991 кукольные мультфильмы DVDRip] Стpана Скачать
1 | 0
Наши мультфильмы [ 1.34 GB ] Сказки для малышей. Владимир Сутеев. Сборник мультфильмов [1955-1974 Мультфильм DVDRip] Aleg333ator Скачать
4 | 2
Наши мультфильмы [ 146.89 GB ] Сборник советских мультфильмов SATRip профессиональный читерас Скачать
2 | 0
Короткометражные мультфильмы [ 1.09 GB ] Сборник мультфильмов. Клуб весёлых человечков. [1959-1965 СССР мультфильм короткометражка DVDRip-AVC SATRip-AVC VHSRip-AVC от AVP Studio] AVP Studio Скачать
15 | 2
Короткометражные мультфильмы [ 1.08 GB ] Сборник мультфильмов. Клуб весёлых человечков. [1959-1965 СССР мультфильм короткометражка DVDRip SATRip VHSRip от AVP Studio] AVP Studio Скачать
1 | 0

28-11-2019 20:33  

Отключить всю рекламу на сайте

    Дорогой пользователь! Огромная просьба, поблагодарите релизера, оцените раздачу и оставьте свои комментарий, если Вы скачали Сборник мультфильмов через торрент бесплатно! Внесите свою лепту в развитие PiratBit!
    Комментировать посты могут только пользователи прошедшие не сложную регистрацию
    Показать сообщения:    

    Сборник мультфильмов через торрент
    Скачать бесплатно Сборник мультфильмов
    Сборник мультфильмов скачать торрент
    Сборник мультфильмов смотреть онлайн
    Cкачать фильм Сборник мультфильмов бесплатно
    Сборник мультфильмов скачать торрент в хорошем качестве
    Сборник мультфильмов смотреть онлайн бесплатно в хорошем качестве


    Вы не можете начинать темы
    Вы не можете отвечать на сообщения
    Вы не можете редактировать свои сообщения
    Вы не можете удалять свои сообщения
    Вы не можете голосовать в опросах
    Вы не можете прикреплять файлы к сообщениям
    Вы можете скачивать файлы