1 сезон

1 сезон

iTunes

1

КиноПоиск HD

Кинопоиск HD

iTunes

13

1 сезон

RePack

30

Новинка

ВАЖНО

ИГРА 18+

pack

RePack

MK11
pack

Легкие деньги

RePack

jed

RePack

fifa19

RePack

RDR2

RePack

NEED FOR SPEED™ PAYBACK

4 сезон

9 сезон

Бесстыжие 9 сезон

Все сериалы

все сериалы на PB.wtf

RePack

FAR CRY 5
  
Magnet ссылка

Скрибблер / Писака / The Scribbler (Джон Суитц) [2014, фантастика, триллер, детектив, BDRip 1080p, Авторский (одноголосый) [Матвеев Алексей (Doctor Joker)] piratbit.pw

Скрибблер через торрент piratbit.pw

Размер: 10.38 GB | Добавлен: 5 лет 9 мес. назад | Торрент скачан:32 раза
Скачать  

21-07-2015 13:09 Скрибблер Скачать торрент  


Скрибблер / Писака / The Scribbler
««Unzip your head»»

ИНФОРМАЦИЯ:
Год выпуска:2014
Страна: США
Жанр: фантастика, триллер, детектив
Продолжительность: 01:29:27
Перевод: Авторский (одноголосый) [Матвеев Алексей (Doctor Joker)]
Субтитры: русские, английские,
Режиссер: Джон Суитц

В Ролях:


Кэти Кэссиди (Suki), Гаррет Диллахант (Hogan), Мишель Трахтенберг (Alice), Элиза Душку (Silk), Майкл Империоли (Moss), Билл Кэмпбелл (Sinclair), Джина Гершон (Cleo), Саша Грэй (Bunny), Кунал Нэйэр (Karim), Эшлинн Йенни (Emily), Т.В. Карпио (Satomi), Ричард Рили (Officer O'Reilly)

Описание:
События фильма разворачиваются вокруг молодой женщины, только что выписавшейся из психбольницы. Ее направляют в специальный медицинский корпус, который должен завершить лечение и подготовить девушку к нормальной жизни в социуме. Там она должна избавиться от своих побочных личностей, из-за которых загремела в психушку. После ее прибытия персонал отдела начинает вымирать с огромной скоростью, при достаточно необычных обстоятельствах...

  • Мировая премьера:1 марта 2014

    ТЕХ.ДАННЫЕ:
    Качество: BDRip 1080p
    Формат: MKV
    Видео кодек: AVC
    Аудио кодек: DTS
    Видео: AVC, 1920x816 (2.35:1), 13257 kbps, 23,976 fps, 0,353 bpp
    Аудио №1: русский / DTS / 5.1 / 48 kHz / 1510 kbps / 24 bit ||
    Аудио №2: английский / DTS / 5.1 / 48 kHz / 1510 kbps / 24 bit
    Навигация по главам: есть


    Код:

    General
    Unique ID                                : 244387522789291870521191896075144964854 (0xB7DB53273C8B75C290DDAB627A12AAF6)
    Complete name                            : D:\Торенты\Писака.1080p.VO. Ton.mkv
    Format                                   : Matroska
    Format version                           : Version 4 / Version 2
    File size                                : 10.4 GiB
    Duration                                 : 1h 29mn
    Overall bit rate                         : 16.6 Mbps
    Movie name                               : Писака. (Tonik)
    Encoded date                             : UTC 2015-07-21 07:28:30
    Writing application                      : mkvmerge v7.1.0 ('Good Love') 64bit built on Jul 27 2014 13:06:55
    Writing library                          : libebml v1.3.0 + libmatroska v1.4.1

    Video
    ID                                       : 1
    Format                                   : AVC
    Format/Info                              : Advanced Video Codec
    Format profile                           : High@L4.1
    Format settings, CABAC                   : Yes
    Format settings, ReFrames                : 5 frames
    Codec ID                                 : V_MPEG4/ISO/AVC
    Duration                                 : 1h 29mn
    Bit rate                                 : 13.3 Mbps
    Width                                    : 1 920 pixels
    Height                                   : 816 pixels
    Display aspect ratio                     : 2.35:1
    Frame rate                               : 23.976 fps
    Color space                              : YUV
    Chroma subsampling                       : 4:2:0
    Bit depth                                : 8 bits
    Scan type                                : Progressive
    Bits/(Pixel*Frame)                       : 0.353
    Stream size                              : 8.28 GiB (80%)
    Writing library                          : x264 core 142 r2479kMod dd79a61
    Encoding settings                        : cabac=1 / ref=5 / deblock=1:-3:-3 / analyse=0x3:0x133 / me=umh / subme=10 / psy=1 / fade_compensate=0.00 / psy_rd=1.20:0.00 / mixed_ref=1 / me_range=24 / chroma_me=1 / trellis=2 / 8x8dct=1 / cqm=0 / deadzone=21,11 / fast_pskip=0 / chroma_qp_offset=-2 / threads=6 / lookahead_threads=1 / sliced_threads=0 / nr=0 / decimate=0 / interlaced=0 / bluray_compat=0 / constrained_intra=0 / fgo=0 / bframes=11 / b_pyramid=2 / b_adapt=2 / b_bias=0 / direct=3 / weightb=1 / open_gop=0 / weightp=2 / keyint=250 / keyint_min=23 / scenecut=40 / intra_refresh=0 / rc=crf / mbtree=0 / crf=16.5000 / qcomp=0.50 / qpmin=0 / qpmax=69 / qpstep=4 / ip_ratio=1.30 / pb_ratio=1.20 / aq=2:0.70
    Language                                 : English
    Default                                  : Yes
    Forced                                   : No

    Audio #1
    ID                                       : 2
    Format                                   : DTS
    Format/Info                              : Digital Theater Systems
    Codec ID                                 : A_DTS
    Duration                                 : 1h 29mn
    Bit rate mode                            : Constant
    Bit rate                                 : 1 510 Kbps
    Channel(s)                               : 6 channels
    Channel positions                        : Front: L C R, Side: L R, LFE
    Sampling rate                            : 48.0 KHz
    Bit depth                                : 24 bits
    Compression mode                         : Lossy
    Stream size                              : 966 MiB (9%)
    Title                                    : Алексей Матвеев
    Language                                 : Russian
    Default                                  : Yes
    Forced                                   : No

    Audio #2
    ID                                       : 3
    Format                                   : DTS
    Format/Info                              : Digital Theater Systems
    Codec ID                                 : A_DTS
    Duration                                 : 1h 29mn
    Bit rate mode                            : Constant
    Bit rate                                 : 1 510 Kbps
    Channel(s)                               : 6 channels
    Channel positions                        : Front: L C R, Side: L R, LFE
    Sampling rate                            : 48.0 KHz
    Bit depth                                : 24 bits
    Compression mode                         : Lossy
    Stream size                              : 966 MiB (9%)
    Language                                 : English
    Default                                  : No
    Forced                                   : No

    Text #1
    ID                                       : 4
    Format                                   : UTF-8
    Codec ID                                 : S_TEXT/UTF8
    Codec ID/Info                            : UTF-8 Plain Text
    Language                                 : Russian
    Default                                  : No
    Forced                                   : No

    Text #2
    ID                                       : 5
    Format                                   : UTF-8
    Codec ID                                 : S_TEXT/UTF8
    Codec ID/Info                            : UTF-8 Plain Text
    Language                                 : English
    Default                                  : No
    Forced                                   : No

    Text #3
    ID                                       : 6
    Format                                   : UTF-8
    Codec ID                                 : S_TEXT/UTF8
    Codec ID/Info                            : UTF-8 Plain Text
    Language                                 : English
    Default                                  : No
    Forced                                   : No

    Menu
    00:00:00.000                             : en:Chapter 1
    00:05:20.862                             : en:Chapter 2
    00:10:18.827                             : en:Chapter 3
    00:17:36.889                             : en:Chapter 4
    00:23:11.432                             : en:Chapter 5
    00:26:54.196                             : en:Chapter 6
    00:30:05.595                             : en:Chapter 7
    00:37:16.359                             : en:Chapter 8
    00:40:08.489                             : en:Chapter 9
    00:43:39.075                             : en:Chapter 10
    00:50:43.499                             : en:Chapter 11
    00:56:47.154                             : en:Chapter 12
    01:05:07.153                             : en:Chapter 13
    01:13:38.205                             : en:Chapter 14
    01:19:28.305                             : en:Chapter 15
    01:24:09.127                             : en:Chapter 16

    Скриншоты:


    © Оформление by Ворон
    piratbit.pw



  • Скачать Скрибблер через торрент https://pic.kartinco.top/images/6/ordi9.jpg Скачать фильм Скрибблер через торрент бесплантно в хорошем качестве Описание: События фильма разворачиваются вокруг молодой женщины, только что выписавшейся из психбольницы. Ее направляют в специальный ... 10 10 4
    Info! Золотая раздача, скачанное не засчитывается.
    Торрент: Зарегистрирован [2015-07-21 13:09] · скачан: 32 раз
    Статус: √ проверено
    Размер: 10.38 GB
    Как cкачать? Как скачать Скрибблер через торрент | UTorrent

    % Раздел Тема Автор DL S | L
    Фильмы с авторской озвучкой [ 3.7 GB ] Скрибблер / Писака / The Scribbler [2014 BDRip 720p Авторский [Матвеев Алексей ] Ворон Скачать
    1 | 0
    Фильмы с авторской озвучкой [ 1.46 GB ] Скрибблер / Писака / The Scribbler [2014 HDRip Авторский [Матвеев Алексей ] Ворон Скачать
    1 | 0
    T Фильмы 2014 (Звук TS, Cam, VO, DVO) [ 1.45 GB ] Скрибблер / Писака / The Scribbler [2014 WEB-DLRip Любительский [Savetig Studios] Ворон Скачать
    1 | 0
    T Фильмы (WEB-DL 720p, 1080p) [ 2.66 GB ] Скрибблер / Писака / The Scribbler [2014 WEB-DL 720p Любительский [Savetig Studios] Ворон Скачать
    1 | 0
    T Фильмы 2014 (Звук TS, Cam, VO, DVO) [ 1.46 GB ] Скрибблер / Писака / The Scribbler [2014 WEB-DLRip Любительский [Алексей Толмачев] Ворон Скачать
    1 | 0

    28-11-2019 20:33  

    Отключить всю рекламу на сайте

      Дорогой пользователь! Огромная просьба, поблагодарите релизера, оцените раздачу и оставьте свои комментарий, если Вы скачали Скрибблер через торрент бесплатно! Внесите свою лепту в развитие PiratBit!
      Комментировать посты могут только пользователи прошедшие не сложную регистрацию
      Показать сообщения:    

      Скрибблер через торрент
      Скачать бесплатно Скрибблер
      Скрибблер скачать торрент
      Скрибблер смотреть онлайн
      Cкачать фильм Скрибблер бесплатно
      Скрибблер скачать торрент в хорошем качестве
      Скрибблер смотреть онлайн бесплатно в хорошем качестве


      Вы не можете начинать темы
      Вы не можете отвечать на сообщения
      Вы не можете редактировать свои сообщения
      Вы не можете удалять свои сообщения
      Вы не можете голосовать в опросах
      Вы не можете прикреплять файлы к сообщениям
      Вы можете скачивать файлы