1 сезон

3 сезон

iTunes

1

iTunes

DUB Netflix

iTunes

13

1 сезон

RePack

30

Deluxe

pack

Легкие деньги

ВАЖНО

ИГРА 18+

pack

RePack

MK11

RePack

jed

RePack

fifa19

RePack

RDR2

RePack

NEED FOR SPEED™ PAYBACK

4 сезон

9 сезон

Бесстыжие 9 сезон

Все сериалы

все сериалы на PB.wtf

RePack

FAR CRY 5

Anonymous, добрый вечер, мы не успеваем до 1 числа собрать деньги на оплату серверов, помогите нам пожалуйста в это трудное время. В качестве благодарности мы отключим Вам всю рекламу на сайте (укажите свой ник в строку Ваше имя)!

×
  
Magnet ссылка

Всё включено / All Inclusive (Хелла Йооф) [2014, драма, комедия, HDRip, Любительский (одноголосый)[Vaxywod] piratbit.pw

Всё включено через торрент piratbit.pw

Размер: 1.37 GB | Добавлен: 5 лет 10 мес. назад | Торрент скачан:109 раз
Скачать  

20-07-2015 14:13 Всё включено Скачать торрент  


Всё включено / All Inclusive
««der sker virkelig noget dernede!»»

ИНФОРМАЦИЯ:
Год выпуска:2014
Страна: Дания
Жанр: драма, комедия
Продолжительность: 01:29:32
Перевод: Любительский (одноголосый)[Vaxywod]
Режиссер: Хелла Йооф

В Ролях:


Микаэль Бирккьяр (Mogens), Расмус Бьерг (Henrik), Карстен Бьорнлунн (Anders), Даника Куркик (Ditte), Диогу Инфанте (Antonio), Бодиль Ёргенсон (Lise), Миа Лине (Tina), Кристиан Мосбек (Bjørn), Anna Neye Poulsen (Alicia), Maria Rossing (Sigrid), Уилльям Тиль Стенсгаард (Oliver), Pi Svenstrup (Majken Dahl)

Описание:
Главная героиня решает отметить свое 60-летие поездкой на Мальту. Компанию ей составляют две дочери, которые давно уже не общаются и ненавидят друг друга. Одна из них — серьезная женщина и мать троих детей, другая — упорно не желающая взрослеть рокерша, ведущая альтернативный образ жизни... Во время средиземноморского турне участницы этого забавного трио будут переживать романтические приключения и выяснять отношения друг с другом...

  • Мировая премьера:25 декабря 2014

    ТЕХ.ДАННЫЕ:
    Качество: HDRip
    Формат: AVI
    Видео кодек: XviD
    Аудио кодек: AC3
    Видео: XviD, 720x304 (2.35:1), 1897 kbps, 24 fps, 0,361 bpp
    Аудио: AC3 / 2.0 / 48 kHz / 192 kbps / 16 bit


    Код:

    General
    Complete name                            : D:\Торенты\All.Inclusive.2014.L1.HDRip.1400MB.avi
    Format                                   : AVI
    Format/Info                              : Audio Video Interleave
    File size                                : 1.37 GiB
    Duration                                 : 1h 29mn
    Overall bit rate                         : 2 185 Kbps
    Writing application                      : VirtualDubMod 1.5.10.3 | www.virtualdub-fr.org || (build 2550/release)
    Writing library                          : VirtualDubMod build 2550/release

    Video
    ID                                       : 0
    Format                                   : MPEG-4 Visual
    Format profile                           : Advanced Simple@L5
    Format settings, BVOP                    : 2
    Format settings, QPel                    : No
    Format settings, GMC                     : No warppoints
    Format settings, Matrix                  : Default (MPEG)
    Codec ID                                 : XVID
    Codec ID/Hint                            : XviD
    Duration                                 : 1h 29mn
    Bit rate                                 : 1 898 Kbps
    Width                                    : 720 pixels
    Height                                   : 304 pixels
    Display aspect ratio                     : 2.35:1
    Frame rate                               : 24.000 fps
    Color space                              : YUV
    Chroma subsampling                       : 4:2:0
    Bit depth                                : 8 bits
    Scan type                                : Progressive
    Compression mode                         : Lossy
    Bits/(Pixel*Frame)                       : 0.361
    Stream size                              : 1.19 GiB (87%)
    Writing library                          : XviD 1.2.1 (UTC 2008-12-04)

    Audio
    ID                                       : 1
    Format                                   : AC-3
    Format/Info                              : Audio Coding 3
    Mode extension                           : CM (complete main)
    Codec ID                                 : 2000
    Duration                                 : 1h 29mn
    Bit rate mode                            : Constant
    Bit rate                                 : 192 Kbps
    Channel(s)                               : 2 channels
    Channel positions                        : Front: L R
    Sampling rate                            : 48.0 KHz
    Bit depth                                : 16 bits
    Compression mode                         : Lossy
    Stream size                              : 123 MiB (9%)
    Alignment                                : Split accross interleaves

    Скриншоты:


    © Оформление by Ворон
    piratbit.pw



  • Скачать Всё включено через торрент https://pic1.kartinco.top/images/61/ordi9.jpg Скачать фильм Всё включено через торрент бесплантно в хорошем качестве Описание: Главная героиня решает отметить свое 60-летие поездкой на Мальту. Компанию ей составляют две дочери, которые давно уже не ... 9.9 10 7
    Info! Золотая раздача, скачанное не засчитывается.
    Торрент: Зарегистрирован [2015-07-20 14:13] · скачан: 109 раз
    Статус: T временная
    Размер: 1.37 GB
    Как cкачать? Как скачать Всё включено через торрент | UTorrent

    % Раздел Тема Автор DL S | L
    Фильмы (DVD фильмы) [ 4.17 GB ] Всё включено: Каникулы в Греции / Sune i Grekland - All Inclusive [2012 DVD5] R5 voovaz Скачать
    1 | 0
    Наши фильмы 2010-2011 [ 1.46 GB ] All inclusive или Всё включено [2011 HDRip] Sудья Скачать
    1 | 0
    Наши фильмы 2010-2011 [ 1.37 GB ] All inclusive или Всё включено [2011 DVDRip лицензия] Чупачупсик Скачать
    1 | 0
    Наши фильмы (HD, WEB-DL 720p, 1080p) [ 2.28 GB ] All inclusive или Всё включено [2011 BDRip ] Anonymous Скачать
    1 | 0
    Наши фильмы 2010-2011 [ 700 MB ] All inclusive или Всё включено [2011 DVDRip лицензия] 700 mb SD Скачать
    1 | 0
    Наши фильмы 2010-2011 [ 743 MB ] All inclusive или Всё включено [2011 HDRip Пиратка] GuyFromIowa221 Скачать
    1 | 0
    Наши фильмы (HD, WEB-DL 720p, 1080p) [ 5.36 GB ] All inclusive или Всё включено [2011 BDRip 720p] NarutoSasuke Скачать
    1 | 0

    28-11-2019 20:33  

    Отключить всю рекламу на сайте

      Дорогой пользователь! Огромная просьба, поблагодарите релизера, оцените раздачу и оставьте свои комментарий, если Вы скачали Всё включено через торрент бесплатно! Внесите свою лепту в развитие PiratBit!
      Комментировать посты могут только пользователи прошедшие не сложную регистрацию
      Показать сообщения:    

      Всё включено через торрент
      Скачать бесплатно Всё включено
      Всё включено скачать торрент
      Всё включено смотреть онлайн
      Cкачать фильм Всё включено бесплатно
      Всё включено скачать торрент в хорошем качестве
      Всё включено смотреть онлайн бесплатно в хорошем качестве


      Вы не можете начинать темы
      Вы не можете отвечать на сообщения
      Вы не можете редактировать свои сообщения
      Вы не можете удалять свои сообщения
      Вы не можете голосовать в опросах
      Вы не можете прикреплять файлы к сообщениям
      Вы можете скачивать файлы