Ссылка на приватное зеркало нашего сайта всего за 1$. Внимание количество ограничено!!!

2 сезон

iTunes

1 сезон

1

iTunes

iTunes

iTunes

1 сезон

RePack

30

ИГРА 18+

pack

ВАЖНО

!!Акция!!

Alien_RageХит недели

RePack

MK11
pack

Забери бонус

RePack

jed

!!Акция!!

Alien_Rage

RePack

fifa19

RePack

Assassins Creed: Odyssey

RePack

NEED FOR SPEED™ PAYBACK

4 сезон

9 сезон

Бесстыжие 9 сезон

Все сериалы

все сериалы на PB.wtf

RePack

FAR CRY 5
  

Смайлик (Тамара Аленикова) [2014, Романтическая комедия, HDTVRip от Files-х] piratbit.pw

Смайлик через торрент piratbit.pw

Размер: 1.37 GB | Добавлен: 5 лет 3 мес. назад | Торрент скачан:351 раз
Скачать  

18-07-2015 12:51 Смайлик Скачать торрент  


Смайлик


ИНФОРМАЦИЯ:
Год выпуска:2014
Страна: Россия
Жанр: мелодрама
Продолжительность: 01:27:15
Перевод: Не требуется
Режиссер: Тамара Аленикова

В Ролях:


Александра Лупашко, Антон Соколов, Татьяна Яковенко, Витас Эйзенах, Мария Поезжаева, Мария Бушмелёва, Александр Ратников, Валентина Светлова, Ольга Хохлова, Александр Чевычелов, Алексей Суренский

Описание:
Вы верите в любовь с первого взгляда в современном мире безумных скоростей и бесконечных СМС? Разные люди находят друг друга и знакомятся в социальных сетях. У каждого из них - своя устроенная жизнь, привычки, привязанности. Казалось бы, ничего не предвещает судьбоносных перемен... Что может этот устойчивый и привычный мир? Разве что, случайный смайлик на мониторе... И безумное предложение встретиться... Смайлик - величайшее изобретение нашего времени! «Смайлик» - три новеллы, три истории любви с непредсказуемой развязкой.


ТЕХ.ДАННЫЕ:
Качество: HDTVRip
Формат: AVI
Видео кодек: XviD
Аудио кодек: AC3
Видео: XviD, 720x384 (1.875), 1954 kbps, 25 fps, Interlaced (Top Field First), 0,283 bpp
Аудио: AC3 / 2.0 / 48 kHz / 192 kbps / 16 bit


Код:

General
Complete name                            : D:\Торенты\Smaylik.2014.HDTVRip.Files-x.avi
Format                                   : AVI
Format/Info                              : Audio Video Interleave
File size                                : 1.37 GiB
Duration                                 : 1h 27mn
Overall bit rate                         : 2 245 Kbps
Writing application                      : VirtualDubMod 1.5.10.3 | www.virtualdub-fr.org || (build 2550/release)
Writing library                          : VirtualDubMod build 2550/release

Video
ID                                       : 0
Format                                   : MPEG-4 Visual
Format profile                           : Advanced Simple@L5
Format settings, BVOP                    : 1
Format settings, QPel                    : No
Format settings, GMC                     : No warppoints
Format settings, Matrix                  : Custom
Codec ID                                 : XVID
Codec ID/Hint                            : XviD
Duration                                 : 1h 27mn
Bit rate                                 : 1 955 Kbps
Width                                    : 720 pixels
Height                                   : 384 pixels
Display aspect ratio                     : 1.875
Frame rate                               : 25.000 fps
Color space                              : YUV
Chroma subsampling                       : 4:2:0
Bit depth                                : 8 bits
Scan type                                : Progressive
Compression mode                         : Lossy
Bits/(Pixel*Frame)                       : 0.283
Stream size                              : 1.19 GiB (87%)
Writing library                          : XviD 73

Audio
ID                                       : 1
Format                                   : AC-3
Format/Info                              : Audio Coding 3
Mode extension                           : CM (complete main)
Codec ID                                 : 2000
Duration                                 : 1h 27mn
Bit rate mode                            : Constant
Bit rate                                 : 192 Kbps
Channel(s)                               : 2 channels
Channel positions                        : Front: L R
Sampling rate                            : 48.0 KHz
Bit depth                                : 16 bits
Compression mode                         : Lossy
Stream size                              : 120 MiB (9%)
Alignment                                : Split accross interleaves

Скриншоты:


© Оформление by Ворон
piratbit.pw



Скачать Смайлик через торрент http://pic.kartinco.top/images/6/ordi9.jpg Скачать фильм Смайлик через торрент бесплантно в хорошем качестве Описание: Вы верите в любовь с первого взгляда в современном мире безумных скоростей и бесконечных СМС? Разные люди находят друг друга и ... 9.5 10 13
Торрент: Зарегистрирован [2015-07-18 12:51] · скачан: 351 раз
Статус: √ проверено
Размер: 1.37 GB
Как cкачать? Как скачать Смайлик через торрент | qTorrent

% Раздел Тема Автор DL S | L
Наши фильмы (HD, WEB-DL 720p, 1080p) [ 5.56 GB ] Смайлик [2014 Романтическая HDTV 1080i от MediaClub] Ворон Скачать
1 | 0

28-11-2019 20:33  

Отключить всю рекламу на сайте

    Дорогой пользователь! Огромная просьба, поблагодарите релизера, оцените раздачу и оставьте свои комментарий, если Вы скачали Смайлик через торрент бесплатно! Внесите свою лепту в развитие PiratBit!
    Комментировать посты могут только пользователи прошедшие не сложную регистрацию
    Показать сообщения:    

    Смайлик через торрент
    Скачать бесплатно Смайлик
    Смайлик скачать торрент
    Смайлик смотреть онлайн
    Cкачать фильм Смайлик бесплатно
    Смайлик скачать торрент в хорошем качестве
    Смайлик смотреть онлайн бесплатно в хорошем качестве


    Вы не можете начинать темы
    Вы не можете отвечать на сообщения
    Вы не можете редактировать свои сообщения
    Вы не можете удалять свои сообщения
    Вы не можете голосовать в опросах
    Вы не можете прикреплять файлы к сообщениям
    Вы можете скачивать файлы