Marvel's Avengers Deluxe Edition (супер цена) 159р. Внимание количество ограничено!!!

2 сезон

iTunes

iTunes

1

iTunes

iTunes

iTunes

WEBRip

iTunes

30
pack

Новость дня

ВАЖНО

!!Акция!!

Alien_RageХит недели

RePack

Horizon Zero Dawn

ИГРА 18+

pack

RePack

jed

!!Акция!!

Alien_Rage

RePack

fifa19

RePack

Assassins Creed: Odyssey

RePack

NEED FOR SPEED™ PAYBACK

4 сезон

9 сезон

Бесстыжие 9 сезон

Все сериалы

все сериалы на PB.wtf

RePack

FAR CRY 5
  

Вий (Олег Степченко) [2014, фэнтези, триллер, приключения, BDRip 720p от potroks] Лицензия piratbit.pw

Вий через торрент piratbit.pw

Размер: 6.37 GB | Добавлен: 5 лет 2 мес. назад | Торрент скачан:273 раза
Скачать  

17-07-2015 04:05 Вий Скачать торрент  

Вий
«Не бойся...»
Год выпуска: 2014
Страна: Россия, Украина, Германия, Великобритания, Чехия / Маринс Групп Интертеймент...
Жанр: фэнтези, триллер, приключения
Продолжительность: 02:10:12
Перевод: Оригинал [Blu-Ray]
Режиссер: Олег Степченко
В ролях:

Джейсон Флеминг (Джонатан Грин), Андрей Смоляков (отец Паисий), Алексей Чадов (Петрусь), Агния Дитковските (Настуся), Юрий Цурило (Сотник), Ольга Зайцева (панночка), Александр Яковлев (Оверко), Игорь Жижикин (Дорош), Валерий Золотухин (Явтух), Нина Русланова (жена Явтуха), Виктор Бычков (Тарас), Иван Моховиков (бурсак Халява)
Описание: Начало XVIII века. Картограф Джонатан Грин совершает научное путешествие из Европы на Восток. Проследовав через Трансильванию и преодолев Карпатские горы, он попадает в затерянную среди непроходимых лесов деревушку. Только воля случая и густой туман могли занести его в это проклятое место. Народ, живущий здесь, не похож ни на один доселе виданный путешественником. Эти люди, оградив себя от остального мира глубоким рвом, наивно верят, что смогут уберечься от нечисти, не понимая, что она уже давно поселилась в их душах и только ждёт случая, чтобы вырваться наружу. Даже в страшном сне учёный-материалист не предполагал, что здесь ему уготована встреча с верным слугой дьявола.

Качество: BDRip 720p
Формат: MKV
Видео кодек: AVC
Аудио кодек: AC3
Видео: AVC, 1268x720 (16:9), 6365 kbps, 23,976 fps, 0,291 bpp
Аудио: AC3 / 5.1 / 48 kHz / 640 kbps / 16 bit
Навигация по главам: есть

Код:

General
Unique ID                                : 205411924590739667384355496069924654856 (0x9A88E5CC69D85DDC93002A845AC80F08)
Complete name                            : N:\Ужасы\Viy.2013.RUS.BDRip.720p.-HELLYWOOD.mkv
Format                                   : Matroska
Format version                           : Version 4 / Version 2
File size                                : 6.37 GiB
Duration                                 : 2h 10mn
Overall bit rate                         : 7 007 Kbps
Movie name                               : Вий (2013) - HELLYWOOD
Encoded date                             : UTC 2015-05-16 19:53:05
Writing application                      : mkvmerge v5.9.0 ('On The Loose') built on Dec 15 2012 16:39:58
Writing library                          : libebml v1.3.0 + libmatroska v1.4.0
Attachment                               : Yes

Video
ID                                       : 1
Format                                   : AVC
Format/Info                              : Advanced Video Codec
Format profile                           : High@L4.1
Format settings, CABAC                   : Yes
Format settings, ReFrames                : 8 frames
Codec ID                                 : V_MPEG4/ISO/AVC
Duration                                 : 2h 10mn
Bit rate                                 : 6 365 Kbps
Width                                    : 1 268 pixels
Height                                   : 720 pixels
Display aspect ratio                     : 16:9
Frame rate                               : 23.976 fps
Color space                              : YUV
Chroma subsampling                       : 4:2:0
Bit depth                                : 8 bits
Scan type                                : Progressive
Bits/(Pixel*Frame)                       : 0.291
Stream size                              : 5.66 GiB (89%)
Title                                    : potroks
Writing library                          : x264 core 146 r2538 121396c
Encoding settings                        : cabac=1 / ref=8 / deblock=1:-3:-3 / analyse=0x3:0x113 / me=umh / subme=11 / psy=1 / psy_rd=1.04:0.07 / mixed_ref=1 / me_range=48 / chroma_me=1 / trellis=2 / 8x8dct=1 / cqm=0 / deadzone=21,11 / fast_pskip=0 / chroma_qp_offset=-3 / threads=12 / lookahead_threads=2 / sliced_threads=0 / nr=0 / decimate=0 / interlaced=0 / bluray_compat=0 / constrained_intra=0 / bframes=10 / b_pyramid=2 / b_adapt=2 / b_bias=0 / direct=3 / weightb=1 / open_gop=0 / weightp=2 / keyint=250 / keyint_min=23 / scenecut=40 / intra_refresh=0 / rc_lookahead=60 / rc=2pass / mbtree=0 / bitrate=6365 / ratetol=1.0 / qcomp=0.72 / qpmin=0 / qpmax=69 / qpstep=4 / cplxblur=20.0 / qblur=0.5 / vbv_maxrate=14000 / vbv_bufsize=14000 / nal_hrd=none / filler=0 / ip_ratio=1.35 / pb_ratio=1.25 / aq=1:0.70
Language                                 : Russian
Default                                  : Yes
Forced                                   : No

Audio
ID                                       : 2
Format                                   : AC-3
Format/Info                              : Audio Coding 3
Mode extension                           : CM (complete main)
Codec ID                                 : A_AC3
Duration                                 : 2h 10mn
Bit rate mode                            : Constant
Bit rate                                 : 640 Kbps
Channel(s)                               : 6 channels
Channel positions                        : Front: L C R, Side: L R, LFE
Sampling rate                            : 48.0 KHz
Bit depth                                : 16 bits
Compression mode                         : Lossy
Stream size                              : 596 MiB (9%)
Title                                    : Original | DD 5.1 @ 640 kbps - Blu-Ray
Language                                 : Russian
Default                                  : Yes
Forced                                   : No

Menu
00:00:00.000                             : ru:Chapter 1
00:16:15.474                             : ru:Chapter 2
00:32:07.634                             : ru:Chapter 3
00:44:54.650                             : ru:Chapter 4
01:07:12.194                             : ru:Chapter 5
01:20:37.791                             : ru:Chapter 6
01:37:30.803                             : ru:Chapter 7
01:52:43.131                             : ru:Chapter 8

piratbit.pw



Скачать Вий через торрент http://pic.kartinco.top/images/11/3rj4l.jpg Скачать фильм Вий через торрент бесплантно в хорошем качестве Описание: Начало XVIII века. Картограф Джонатан Грин совершает научное путешествие из Европы на Восток. Проследовав через Трансильванию и ... 9.4 10 11
Info! Золотая раздача, скачанное не засчитывается.
Торрент: Зарегистрирован [2015-07-17 04:05] · скачан: 273 раз
Статус: √ проверено
Размер: 6.37 GB
Как cкачать? Как скачать Вий через торрент | qTorrent

% Раздел Тема Автор DL S | L
Наши новые фильмы 2018-2019 [ 1.5 GB ] Гоголь. Вий [2018 BDRip-AVC] [Русский] [] - ExKinoRay Enigma2010 Скачать
1 | 1
Наши фильмы (Blu-ray, BD-Remux, HDDVD) [ 20.25 GB ] Гоголь. Вий [2018 BD Remux 1080p] [] bober100 Скачать
1 | 0
Наши новые фильмы 2018-2019 [ 1.46 GB ] Гоголь. Вий [2018 BDRip] [Русский] [] Twi7ter Скачать
2 | 1
Наши фильмы (HD, WEB-DL 720p, 1080p) [ 8.42 GB ] Гоголь. Вий [2018 BDRip 1080p] [] bober100 Скачать
2 | 0
Наши новые фильмы 2018-2019 [ 745 MB ] Гоголь. Вий [2018 HDRip] [] bober100 Скачать
3 | 0
Наши фильмы (HD, WEB-DL 720p, 1080p) [ 4.95 GB ] Гоголь. Вий [2018 BDRip 720p] [] bober100 Скачать
1 | 0
Наши новые фильмы 2018-2019 [ 2.17 GB ] Гоголь. Вий [2018 BDRip-AVC] [] bober100 Скачать
2 | 0

28-11-2019 20:33  

Отключить всю рекламу на сайте

    Дорогой пользователь! Огромная просьба, поблагодарите релизера, оцените раздачу и оставьте свои комментарий, если Вы скачали Вий через торрент бесплатно! Внесите свою лепту в развитие PiratBit!
    Комментировать посты могут только пользователи прошедшие не сложную регистрацию
    Показать сообщения:    

    Вий через торрент
    Скачать бесплатно Вий
    Вий скачать торрент
    Вий смотреть онлайн
    Cкачать фильм Вий бесплатно
    Вий скачать торрент в хорошем качестве
    Вий смотреть онлайн бесплатно в хорошем качестве


    Вы не можете начинать темы
    Вы не можете отвечать на сообщения
    Вы не можете редактировать свои сообщения
    Вы не можете удалять свои сообщения
    Вы не можете голосовать в опросах
    Вы не можете прикреплять файлы к сообщениям
    Вы можете скачивать файлы