1 сезон

3 сезон

iTunes

1

iTunes

DUB Netflix

iTunes

13

1 сезон

RePack

30

Deluxe

pack

Легкие деньги

ВАЖНО

ИГРА 18+

pack

RePack

MK11

RePack

jed

RePack

fifa19

RePack

RDR2

RePack

NEED FOR SPEED™ PAYBACK

4 сезон

9 сезон

Бесстыжие 9 сезон

Все сериалы

все сериалы на PB.wtf

RePack

FAR CRY 5

Anonymous, доброй ночи, мы не успеваем до 1 числа собрать деньги на оплату серверов, помогите нам пожалуйста в это трудное время. В качестве благодарности мы отключим Вам всю рекламу на сайте (укажите свой ник в строку Ваше имя)!

×
  
Magnet ссылка

Колодец / Последние выжившие / The Well (Томас С. Хэммок) [2014, ужасы, боевик, триллер, HDRip, Любительский (одноголосый) [Xixidok] piratbit.pw

Колодец через торрент piratbit.pw

Размер: 1.46 GB | Добавлен: 5 лет 11 мес. назад | Торрент скачан:203 раза
Скачать  

16-07-2015 19:31 Колодец Скачать торрент  


Колодец / Последние выжившие / The Well
««THE WELL is a post-apocalyptic thriller about a teenage girl fighting to protect the last working well in a drought-stricken valley»»

ИНФОРМАЦИЯ:
Год выпуска:2014
Страна: США
Жанр: ужасы, боевик, триллер
Продолжительность: 01:34:49
Перевод: Любительский (одноголосый) [Xixidok]
Режиссер: Томас С. Хэммок

В Ролях:


Хейли Лу Ричардсон (Kendal), Бу Бу Стюарт (Dean), Макс Чарльз (Alby), Николь Арианна Фокс (Brooke), Майкл Уэлш (Gabriel), Джон Грайз (Carson), Майкл Масси (Walker), Рина Оуэн (Claire), Лео Ли (Judas), Барбара Крэмптон (Grace), Майкл МакКартни (Cadiz), Жаклин Эмерсон (Skye)

Описание:
Пост-апокалиптический триллер о ближайшем будущем. Пресная вода, самый ценный товар, закончилась. Жадный до воды барон определяет, кому жить, а кому умереть. Кендал, храбрая 17-летняя девушка, встает на пути этого злодея...

  • Мировая премьера:12 июня 2014

    ТЕХ.ДАННЫЕ:
    Качество: HDRip
    Формат: AVI
    Видео кодек: XviD
    Аудио кодек: AC3
    Видео: XviD, 720x304 (2.35:1), 1724 kbps, 23,976 fps, 0,329 bpp
    Аудио: AC3 / 5.1 / 48 kHz / 384 kbps / 16 bit


    Код:

    General
    Complete name                            : D:\Торенты\K0lodec.2014.L1.HDRip.avi
    Format                                   : AVI
    Format/Info                              : Audio Video Interleave
    File size                                : 1.46 GiB
    Duration                                 : 1h 34mn
    Overall bit rate                         : 2 205 Kbps
    Writing application                      : VirtualDubMod 1.5.10.2 (build 2540/release)
    Writing library                          : VirtualDubMod build 2540/release

    Video
    ID                                       : 0
    Format                                   : MPEG-4 Visual
    Format profile                           : Advanced Simple@L5
    Format settings, BVOP                    : 2
    Format settings, QPel                    : No
    Format settings, GMC                     : No warppoints
    Format settings, Matrix                  : Custom
    Codec ID                                 : XVID
    Codec ID/Hint                            : XviD
    Duration                                 : 1h 34mn
    Bit rate                                 : 1 725 Kbps
    Width                                    : 720 pixels
    Height                                   : 304 pixels
    Display aspect ratio                     : 2.35:1
    Frame rate                               : 23.976 fps
    Color space                              : YUV
    Chroma subsampling                       : 4:2:0
    Bit depth                                : 8 bits
    Scan type                                : Progressive
    Compression mode                         : Lossy
    Bits/(Pixel*Frame)                       : 0.329
    Stream size                              : 1.14 GiB (78%)
    Writing library                          : XviD 1.2.1 (UTC 2008-12-04)

    Audio
    ID                                       : 1
    Format                                   : AC-3
    Format/Info                              : Audio Coding 3
    Mode extension                           : CM (complete main)
    Codec ID                                 : 2000
    Duration                                 : 1h 34mn
    Bit rate mode                            : Constant
    Bit rate                                 : 384 Kbps
    Channel(s)                               : 6 channels
    Channel positions                        : Front: L C R, Side: L R, LFE
    Sampling rate                            : 48.0 KHz
    Bit depth                                : 16 bits
    Compression mode                         : Lossy
    Stream size                              : 260 MiB (17%)
    Alignment                                : Split accross interleaves

    Скриншоты:


    © Оформление by Ворон
    piratbit.pw



  • Скачать Колодец через торрент https://pic1.kartinco.top/images/61/ordi9.jpg Скачать фильм Колодец через торрент бесплантно в хорошем качестве Описание: Пост-апокалиптический триллер о ближайшем будущем. Пресная вода, самый ценный товар, закончилась. Жадный до воды барон ... 9.8 10 5
    Торрент: Зарегистрирован [2015-07-16 19:31] · скачан: 203 раз
    Статус: T временная
    Размер: 1.46 GB
    Как cкачать? Как скачать Колодец через торрент | UTorrent

    % Раздел Тема Автор DL S | L
    T Фильмы 2014 (Звук TS, Cam, VO, DVO) [ 1.46 GB ] Колодец / Последние выжившие / The Well [2014 BDRip Любительский [Xixidok] Twi7ter Скачать
    1 | 0
    Фильмы [HD 720p, 1080p] (Звук Cam, VO, DVO) [ 7.85 GB ] Колодец / Последние выжившие / The Well [2014 BDRip 1080p от NovaLan] VO Ворон Скачать
    1 | 0

    28-11-2019 20:33  

    Отключить всю рекламу на сайте

      Дорогой пользователь! Огромная просьба, поблагодарите релизера, оцените раздачу и оставьте свои комментарий, если Вы скачали Колодец через торрент бесплатно! Внесите свою лепту в развитие PiratBit!
      Комментировать посты могут только пользователи прошедшие не сложную регистрацию
      Показать сообщения:    

      Колодец через торрент
      Скачать бесплатно Колодец
      Колодец скачать торрент
      Колодец смотреть онлайн
      Cкачать фильм Колодец бесплатно
      Колодец скачать торрент в хорошем качестве
      Колодец смотреть онлайн бесплатно в хорошем качестве


      Вы не можете начинать темы
      Вы не можете отвечать на сообщения
      Вы не можете редактировать свои сообщения
      Вы не можете удалять свои сообщения
      Вы не можете голосовать в опросах
      Вы не можете прикреплять файлы к сообщениям
      Вы можете скачивать файлы