1 сезон

3 сезон

iTunes

1

iTunes

DUB Netflix

iTunes

13

1 сезон

RePack

30

Deluxe

pack

Легкие деньги

ВАЖНО

ИГРА 18+

pack

RePack

MK11

RePack

jed

RePack

fifa19

RePack

RDR2

RePack

NEED FOR SPEED™ PAYBACK

4 сезон

9 сезон

Бесстыжие 9 сезон

Все сериалы

все сериалы на PB.wtf

RePack

FAR CRY 5

Anonymous, доброй ночи, мы не успеваем до 1 числа собрать деньги на оплату серверов, помогите нам пожалуйста в это трудное время. В качестве благодарности мы отключим Вам всю рекламу на сайте (укажите свой ник в строку Ваше имя)!

×
  
Magnet ссылка

Солёное поле боя / Salting the Battlefield (Дэвид Хэа) [2014, боевик, драма, криминал, WEB-DLRip, Любительский (одноголосый) piratbit.pw

Солёное поле боя через торрент piratbit.pw

Размер: 1.37 GB | Добавлен: 5 лет 11 мес. назад | Торрент скачан:105 раз
Скачать  

16-07-2015 16:34 Солёное поле боя Скачать торрент  


Солёное поле боя (ТВ) / Salting the Battlefield


ИНФОРМАЦИЯ:
Год выпуска:2014
Страна: Великобритания
Жанр: боевик, драма, криминал, детектив
Продолжительность: 01:36:44
Перевод: Любительский (одноголосый)[Levelin]
Режиссер: Дэвид Хэа

В Ролях:


Рэйф Файнс (Alec Beasley), Анна Бёгер (Europcar Assistant), Шазад Латиф (Jez Nichols), Фелисити Джонс (Julianne Worricker), Джеймс МакАрдл (Ted Finch), Билл Найи (Johnny Worricker), Саския Ривз (Anthea Catcheside), Дэниэл Райан (Bill Catcheside), Лиэнн Бест (Amber Page), Джуди Дэвис (Jill Tankard), Хелена Бонем Картер (Margot Tyrrell), Юэн Бремнер (Rollo Maverley)

Описание:
В центре сюжета детективной драмы два спецагента - Джонни Уоррикер и Марго Тирел, которые находятся в Европе в бегах. По их следу идет МИ-6. Они понимают, что так не может продолжаться всю жизнь и осознают, что их вот-вот могут обнаружить. Единственный способ разрешить эту дилемму - это вернуться в Великобританию и встретиться с премьер-министром.

  • Мировая премьера:27 марта 2014

    ТЕХ.ДАННЫЕ:
    Качество: WEB-DLRip
    Формат: AVI
    Видео кодек: XviD
    Аудио кодек: AC3
    Видео: XviD, 720x304 (2.35:1), 1823 kbps, 23,976 fps, 0,348 bpp
    Аудио: AC3 / 2.0 / 48 kHz / 192 kbps /


    Код:

    General
    Complete name                            : D:\Торенты\S0len0e.p0l3.b01a.2014.L1.HDRip.1400MB.avi
    Format                                   : AVI
    Format/Info                              : Audio Video Interleave
    File size                                : 1.37 GiB
    Duration                                 : 1h 36mn
    Overall bit rate                         : 2 023 Kbps
    Writing application                      : VirtualDubMod 1.5.10.2 (build 2540/release)
    Writing library                          : VirtualDubMod build 2540/release

    Video
    ID                                       : 0
    Format                                   : MPEG-4 Visual
    Format profile                           : Advanced Simple@L5
    Format settings, BVOP                    : 2
    Format settings, QPel                    : No
    Format settings, GMC                     : No warppoints
    Format settings, Matrix                  : Default (MPEG)
    Codec ID                                 : XVID
    Codec ID/Hint                            : XviD
    Duration                                 : 1h 36mn
    Bit rate                                 : 1 822 Kbps
    Width                                    : 720 pixels
    Height                                   : 304 pixels
    Display aspect ratio                     : 2.35:1
    Frame rate                               : 23.976 fps
    Color space                              : YUV
    Chroma subsampling                       : 4:2:0
    Bit depth                                : 8 bits
    Scan type                                : Progressive
    Compression mode                         : Lossy
    Bits/(Pixel*Frame)                       : 0.347
    Stream size                              : 1.23 GiB (90%)
    Writing library                          : XviD 1.2.1 (UTC 2008-12-04)

    Audio
    ID                                       : 1
    Format                                   : AC-3
    Format/Info                              : Audio Coding 3
    Mode extension                           : CM (complete main)
    Codec ID                                 : 2000
    Duration                                 : 1h 36mn
    Bit rate mode                            : Constant
    Bit rate                                 : 192 Kbps
    Channel(s)                               : 2 channels
    Channel positions                        : Front: L R
    Sampling rate                            : 48.0 KHz
    Bit depth                                : 16 bits
    Compression mode                         : Lossy
    Stream size                              : 133 MiB (9%)
    Alignment                                : Split accross interleaves
    Interleave, duration                     : 42 ms (1.00 video frame)
    Interleave, preload duration             : 500 ms

    Скриншоты:


    © Оформление by Ворон
    piratbit.pw



  • Скачать Солёное поле боя через торрент https://pic1.kartinco.top/images/61/ordi9.jpg Скачать фильм Солёное поле боя через торрент бесплантно в хорошем качестве Описание: В центре сюжета детективной драмы два спецагента - Джонни Уоррикер и Марго Тирел, которые находятся в Европе в бегах. По их следу ... 10 10 5
    Торрент: Зарегистрирован [2015-07-16 16:34] · скачан: 105 раз
    Статус: √ проверено
    Размер: 1.37 GB
    Как cкачать? Как скачать Солёное поле боя через торрент | UTorrent

    % Раздел Тема Автор DL S | L
    Фильмы [HD 720p, 1080p] (Звук Cam, VO, DVO) [ 9.47 GB ] Солёное поле боя / Salting the Battlefield [2014 BDRip 1080p by msltel] VO msltel Скачать
    1 | 0
    Фильмы [HD 720p, 1080p] (Звук Cam, VO, DVO) [ 3.32 GB ] Солёное поле боя / Salting the Battlefield [2014 BDRip 720p by msltel] VO msltel Скачать
    1 | 0
    Фильмы 2014 (Звук TS, Cam, VO, DVO) [ 2 GB ] Солёное поле боя / Salting the Battlefield [2014 BDRip AVC by msltel] VO msltel Скачать
    1 | 0
    Фильмы [HD 720p, 1080p] (Звук Cam, VO, DVO) [ 4.32 GB ] Солёное поле боя / Salting the Battlefield [2014 BDRip 720p Любительский Ворон Скачать
    1 | 0

    28-11-2019 20:33  

    Отключить всю рекламу на сайте

      Дорогой пользователь! Огромная просьба, поблагодарите релизера, оцените раздачу и оставьте свои комментарий, если Вы скачали Солёное поле боя через торрент бесплатно! Внесите свою лепту в развитие PiratBit!
      Комментировать посты могут только пользователи прошедшие не сложную регистрацию
      Показать сообщения:    

      Солёное поле боя через торрент
      Скачать бесплатно Солёное поле боя
      Солёное поле боя скачать торрент
      Солёное поле боя смотреть онлайн
      Cкачать фильм Солёное поле боя бесплатно
      Солёное поле боя скачать торрент в хорошем качестве
      Солёное поле боя смотреть онлайн бесплатно в хорошем качестве


      Вы не можете начинать темы
      Вы не можете отвечать на сообщения
      Вы не можете редактировать свои сообщения
      Вы не можете удалять свои сообщения
      Вы не можете голосовать в опросах
      Вы не можете прикреплять файлы к сообщениям
      Вы можете скачивать файлы