1 сезон

3 сезон

iTunes

1

iTunes

DUB Netflix

iTunes

13

1 сезон

RePack

30

Deluxe

pack

Легкие деньги

ВАЖНО

ИГРА 18+

pack

RePack

MK11

RePack

jed

RePack

fifa19

RePack

RDR2

RePack

NEED FOR SPEED™ PAYBACK

4 сезон

9 сезон

Бесстыжие 9 сезон

Все сериалы

все сериалы на PB.wtf

RePack

FAR CRY 5

Anonymous, добрый вечер, мы не успеваем до 1 числа собрать деньги на оплату серверов, помогите нам пожалуйста в это трудное время. В качестве благодарности мы отключим Вам всю рекламу на сайте (укажите свой ник в строку Ваше имя)!

×
  
Magnet ссылка

Камни на шанец (Камни на валу) / Kamienie na szaniec (Роберт Глиньский) [2014, драма, военный, HDRip, Любительский (одноголосый)[Project_Web_Money] piratbit.pw

Камни на шанец через торрент piratbit.pw

Размер: 2.13 GB | Добавлен: 5 лет 11 мес. назад | Торрент скачан:58 раз
Скачать  

16-07-2015 08:51 Камни на шанец Скачать торрент  


Камни на шанец (Камни на валу) / Kamienie na szaniec


ИНФОРМАЦИЯ:
Год выпуска:2014
Страна: Польша
Жанр: драма, военный
Продолжительность: 01:51:40
Перевод: Любительский (одноголосый)[Project_Web_Money]
Режиссер: Роберт Глиньский

В Ролях:


Томаш Зетэк (Jan Bytnar «Rudy»), Марсель Сабат (Tadeusz Zawadzki «Zoska»), Kamil Szeptycki (Maciej Aleksy Dawidowski «Alek»), Магдалена Колесник (Monia), Сандра Станишевска (Hala Glinska), Войцех Зилински (Stanislaw Broniewski «Stefan Orsza»), Анджей Хыра (Jan Kiwerski), Кшиштоф Глёбиш (Józef Zawadzki - Zoska's father), Данута Стенка (Zdzislawa Bytnarowa - Mother of «Rudy»), Артур Жмиевски (Stanislaw Bytnar - Father of «Rudy»), Ольгерд Лукашевич (Dr. Trojanowski), Вольфганг Боос (Rottenführer Ewald Lange)

Описание:
Экранизация одноименного романа писателя Александра Каминского. Трое друзей - Алек, Зоська и Рыжий, скауты, выпускники средней школы в Варшаве, строят амбициозные планы на будущее, которые прерывает сентябрь 1939 года. Они вступают вo взрослую жизнь в драматическое время, которое ставит их перед выбором - выжить любой ценой или присоединиться к борцам за свободу родины, рискуя всем. Воспитанные в духе патриотизма, они решают бороться, становятся солдатами и хоть каждый день сталкиваются со смертью, но даже в это жестокое время умеют жить полной жизнью. Сражаются самоотверженно и уходят "как камни, брошенные Богом на шанец", оставляя после себя уроки большой дружбы, чести и любви к Родине.

  • Мировая премьера:7 марта 2014

    ТЕХ.ДАННЫЕ:
    Качество: HDRip
    Формат: AVI
    Видео кодек: DivX 4
    Аудио кодек: AC3
    Видео: DivX 4, 720x304 (2.35:1), 1970 kbps, 23,976 fps, 0,375 bpp
    Аудио №1: AC3 / 2.0 / 48 kHz / 192 kbps / Русский
    Аудио №2: AC3 / 5.1 / 48 kHz / 448 kbps / Польский


    Код:

    General
    Complete name                            : D:\Торенты\Камни_на_валу_VO_Project_Web_Money.avi
    Format                                   : AVI
    Format/Info                              : Audio Video Interleave
    File size                                : 2.13 GiB
    Duration                                 : 1h 51mn
    Overall bit rate                         : 2 729 Kbps
    Writing application                      : VirtualDubModRus 1.5.10.2 (build 2542/release)
    Writing library                          : VirtualDubMod build 2542/release

    Video
    ID                                       : 0
    Format                                   : MPEG-4 Visual
    Format profile                           : Advanced Simple@L4
    Format settings, BVOP                    : 2
    Format settings, QPel                    : No
    Format settings, GMC                     : No warppoints
    Format settings, Matrix                  : Default (H.263)
    Codec ID                                 : DIVX
    Codec ID/Info                            : Project Mayo
    Codec ID/Hint                            : DivX 4
    Duration                                 : 1h 51mn
    Bit rate                                 : 1 970 Kbps
    Width                                    : 720 pixels
    Height                                   : 304 pixels
    Display aspect ratio                     : 2.35:1
    Frame rate                               : 23.976 fps
    Color space                              : YUV
    Chroma subsampling                       : 4:2:0
    Bit depth                                : 8 bits
    Scan type                                : Progressive
    Compression mode                         : Lossy
    Bits/(Pixel*Frame)                       : 0.375
    Stream size                              : 1.54 GiB (72%)
    Writing library                          : XviD 64

    Audio #1
    ID                                       : 1
    Format                                   : AC-3
    Format/Info                              : Audio Coding 3
    Mode extension                           : CM (complete main)
    Codec ID                                 : 2000
    Duration                                 : 1h 51mn
    Bit rate mode                            : Constant
    Bit rate                                 : 192 Kbps
    Channel(s)                               : 2 channels
    Channel positions                        : Front: L R
    Sampling rate                            : 48.0 KHz
    Bit depth                                : 16 bits
    Compression mode                         : Lossy
    Stream size                              : 153 MiB (7%)
    Alignment                                : Split accross interleaves

    Audio #2
    ID                                       : 2
    Format                                   : AC-3
    Format/Info                              : Audio Coding 3
    Mode extension                           : CM (complete main)
    Codec ID                                 : 2000
    Duration                                 : 1h 51mn
    Bit rate mode                            : Constant
    Bit rate                                 : 448 Kbps
    Channel(s)                               : 6 channels
    Channel positions                        : Front: L C R, Side: L R, LFE
    Sampling rate                            : 48.0 KHz
    Bit depth                                : 16 bits
    Compression mode                         : Lossy
    Stream size                              : 358 MiB (16%)
    Alignment                                : Split accross interleaves

    Скриншоты:


    © Оформление by Ворон
    piratbit.pw



  • Скачать Камни на шанец через торрент https://pic1.kartinco.top/images/61/ordi9.jpg Скачать фильм Камни на шанец через торрент бесплантно в хорошем качестве Описание: Экранизация одноименного романа писателя Александра Каминского. Трое друзей - Алек, Зоська и Рыжий, скауты, выпускники средней ... 7.8 10 4
    Торрент: Зарегистрирован [2015-07-16 08:51] · скачан: 58 раз
    Статус: T временная
    Размер: 2.13 GB
    Как cкачать? Как скачать Камни на шанец через торрент | UTorrent

    28-11-2019 20:33  

    Отключить всю рекламу на сайте

      Дорогой пользователь! Огромная просьба, поблагодарите релизера, оцените раздачу и оставьте свои комментарий, если Вы скачали Камни на шанец через торрент бесплатно! Внесите свою лепту в развитие PiratBit!
      Комментировать посты могут только пользователи прошедшие не сложную регистрацию
      Показать сообщения:    

      Камни на шанец через торрент
      Скачать бесплатно Камни на шанец
      Камни на шанец скачать торрент
      Камни на шанец смотреть онлайн
      Cкачать фильм Камни на шанец бесплатно
      Камни на шанец скачать торрент в хорошем качестве
      Камни на шанец смотреть онлайн бесплатно в хорошем качестве


      Вы не можете начинать темы
      Вы не можете отвечать на сообщения
      Вы не можете редактировать свои сообщения
      Вы не можете удалять свои сообщения
      Вы не можете голосовать в опросах
      Вы не можете прикреплять файлы к сообщениям
      Вы можете скачивать файлы