1 сезон

3 сезон

iTunes

1

iTunes

DUB Netflix

iTunes

13

1 сезон

RePack

30

Deluxe

pack

Легкие деньги

ВАЖНО

ИГРА 18+

pack

RePack

MK11

RePack

jed

RePack

fifa19

RePack

RDR2

RePack

NEED FOR SPEED™ PAYBACK

4 сезон

9 сезон

Бесстыжие 9 сезон

Все сериалы

все сериалы на PB.wtf

RePack

FAR CRY 5

Anonymous, доброй ночи, мы не успеваем до 1 числа собрать деньги на оплату серверов, помогите нам пожалуйста в это трудное время. В качестве благодарности мы отключим Вам всю рекламу на сайте (укажите свой ник в строку Ваше имя)!

×
  
Magnet ссылка

Остров динозавров / Dinosaur Island (Мэтт Драммонд) [2014, фантастика, приключения, семейный, HDRip] VO piratbit.pw

Остров динозавров через торрент piratbit.pw

Размер: 1.46 GB | Добавлен: 5 лет 11 мес. назад | Торрент скачан:110 раз
Скачать  

14-07-2015 08:56 Остров динозавров Скачать торрент  


Остров динозавров / Dinosaur Island


ИНФОРМАЦИЯ:
Год выпуска:2014
Страна: Австралия
Жанр: фантастика, приключения, семейный
Продолжительность: 01:23:01
Перевод: Любительский (одноголосый) [Xixidok]
Режиссер: Мэтт Драммонд

В Ролях:
Darius Williams (Lucas Winton), Kate Rasmussen (Kathryn Rose Thompson), Joe Bistaveous (Ernest), Juliette Frederick (Grandma), Vincent Naviti (Boy Chief), Пол Падагас (Jack Winton), Nicole Yardley (Lydia Winton)

Описание:
Лукас, тринадцатилетний подросток, никак не ожидал больших приключений, отправляясь на очередные каникулы. Но судьба решила по-своему: самолет, на котором он летел, попадает в катастрофу. Очнувшись на странном острове, главный герой с ужасом узнает, что на этом клочке земли обитают доисторические рептилии.

  • Мировая премьера:29 сентября 2014

    ТЕХ.ДАННЫЕ:
    Качество: HDRip
    Формат: AVI
    Видео кодек: XviD
    Аудио кодек: AC3
    Видео: XviD, 720x400 (16:9), 1758 kbps, 23,976 fps, 0,255 bpp
    Аудио №1: AC3 / 2.0 / 48 kHz / 192 kbps / Russian
    Аудио №2: AC3 / 5.1 / 48 kHz / 448 kbps / English


    Код:

    General
    Complete name                            : D:\Торенты\0CtP0B.dYH03aBP0B.2014.L1.HDRip.1.46Gb.avi
    Format                                   : AVI
    Format/Info                              : Audio Video Interleave
    File size                                : 1.46 GiB
    Duration                                 : 1h 23mn
    Overall bit rate                         : 2 509 Kbps
    Writing application                      : VirtualDubMod 1.5.10.2 (build 2540/release)
    Writing library                          : VirtualDubMod build 2540/release

    Video
    ID                                       : 0
    Format                                   : MPEG-4 Visual
    Format profile                           : Advanced Simple@L5
    Format settings, BVOP                    : 2
    Format settings, QPel                    : No
    Format settings, GMC                     : No warppoints
    Format settings, Matrix                  : Default (MPEG)
    Codec ID                                 : XVID
    Codec ID/Hint                            : XviD
    Duration                                 : 1h 23mn
    Bit rate                                 : 1 759 Kbps
    Width                                    : 720 pixels
    Height                                   : 400 pixels
    Display aspect ratio                     : 16:9
    Frame rate                               : 23.976 fps
    Color space                              : YUV
    Chroma subsampling                       : 4:2:0
    Bit depth                                : 8 bits
    Scan type                                : Progressive
    Compression mode                         : Lossy
    Bits/(Pixel*Frame)                       : 0.255
    Stream size                              : 1.02 GiB (70%)
    Writing library                          : XviD 1.2.1 (UTC 2008-12-04)

    Audio #1
    ID                                       : 1
    Format                                   : AC-3
    Format/Info                              : Audio Coding 3
    Mode extension                           : CM (complete main)
    Codec ID                                 : 2000
    Duration                                 : 1h 23mn
    Bit rate mode                            : Constant
    Bit rate                                 : 192 Kbps
    Channel(s)                               : 2 channels
    Channel positions                        : Front: L R
    Sampling rate                            : 48.0 KHz
    Bit depth                                : 16 bits
    Compression mode                         : Lossy
    Stream size                              : 114 MiB (8%)
    Alignment                                : Split accross interleaves

    Audio #2
    ID                                       : 2
    Format                                   : AC-3
    Format/Info                              : Audio Coding 3
    Mode extension                           : CM (complete main)
    Codec ID                                 : 2000
    Duration                                 : 1h 23mn
    Bit rate mode                            : Constant
    Bit rate                                 : 448 Kbps
    Channel(s)                               : 6 channels
    Channel positions                        : Front: L C R, Side: L R, LFE
    Sampling rate                            : 48.0 KHz
    Bit depth                                : 16 bits
    Compression mode                         : Lossy
    Stream size                              : 266 MiB (18%)
    Alignment                                : Split accross interleaves

    Скриншоты:


    © Оформление by Ворон
    piratbit.pw



  • Скачать Остров динозавров через торрент https://pic1.kartinco.top/images/61/ordi9.jpg Скачать фильм Остров динозавров через торрент бесплантно в хорошем качестве Описание: Лукас, тринадцатилетний подросток, никак не ожидал больших приключений, отправляясь на очередные каникулы. Но судьба решила ... 7.9 10 7
    Торрент: Зарегистрирован [2015-07-14 08:56] · скачан: 110 раз
    Статус: T временная
    Размер: 1.46 GB
    Как cкачать? Как скачать Остров динозавров через торрент | UTorrent

    % Раздел Тема Автор DL S | L
    Фильмы (Blu-ray, BD-Remux, HDDVD) [ 16.25 GB ] Остров динозавров / Dinosaur Island [2014 BDRemux 1080p от NovaLan] VO Ворон Скачать
    1 | 0
    T Фильмы 2014 (Звук TS, Cam, VO, DVO) [ 1.64 GB ] Остров динозавров / Dinosaur Island [2014 HDRip-AVC от ExKinoRay] VO Ворон Скачать
    1 | 0
    T Фильмы [HD 720p, 1080p] (Звук Cam, VO, DVO) [ 2.39 GB ] Остров динозавров / Dinosaur Island [2014 BDRip 720p] VO Ворон Скачать
    1 | 0

    28-11-2019 20:33  

    Отключить всю рекламу на сайте

    14-07-2015 10:17 Остров динозавров Скачать торрент  

    Друзья!как фильм?качать стоит?piratbit.pw



    14-07-2015 11:37 Остров динозавров Скачать торрент  

    На третьем скрине девка которая с малым,убитая в дребезги sarcastic sarcasticpiratbit.pw



      Дорогой пользователь! Огромная просьба, поблагодарите релизера, оцените раздачу и оставьте свои комментарий, если Вы скачали Остров динозавров через торрент бесплатно! Внесите свою лепту в развитие PiratBit!
      Комментировать посты могут только пользователи прошедшие не сложную регистрацию
      Показать сообщения:    

      Остров динозавров через торрент
      Скачать бесплатно Остров динозавров
      Остров динозавров скачать торрент
      Остров динозавров смотреть онлайн
      Cкачать фильм Остров динозавров бесплатно
      Остров динозавров скачать торрент в хорошем качестве
      Остров динозавров смотреть онлайн бесплатно в хорошем качестве


      Вы не можете начинать темы
      Вы не можете отвечать на сообщения
      Вы не можете редактировать свои сообщения
      Вы не можете удалять свои сообщения
      Вы не можете голосовать в опросах
      Вы не можете прикреплять файлы к сообщениям
      Вы можете скачивать файлы