1 сезон

1 сезон

iTunes

1

КиноПоиск HD

Кинопоиск HD

iTunes

13

1 сезон

RePack

30

Новинка

ВАЖНО

ИГРА 18+

pack

RePack

MK11
pack

Легкие деньги

RePack

jed

RePack

fifa19

RePack

RDR2

RePack

NEED FOR SPEED™ PAYBACK

4 сезон

9 сезон

Бесстыжие 9 сезон

Все сериалы

все сериалы на PB.wtf

RePack

FAR CRY 5
  
Magnet ссылка

Меч дракона / Tian jiang xiong shi (Дэниэл Ли ) [2015, боевик, драма, приключения, BDRip 720p от potroks] AVO piratbit.pw

Меч дракона через торрент piratbit.pw

Размер: 7.98 GB | Добавлен: 5 лет 9 мес. назад | Торрент скачан:165 раз
Скачать  

13-07-2015 11:09 Меч дракона Скачать торрент  

Меч дракона / Tian jiang xiong shi

Год выпуска: 2015
Страна: Китай / СПАМ Roll Media, Shanghai Film Group...
Жанр: боевик, драма, приключения
Продолжительность: 02:07:09
Перевод: Авторский (одноголосый) [А.Дольский]
Субтитры: Английские
Режиссер: Дэниэл Ли / Daniel Lee
В ролях: Джеки Чан (Huo An), Джон Кьюсак (Lucius), Эдриан Броуди (Tiberius), Чхве Ши Вон (Yin Po), Линь Пэн (Cold Moon), Мика Ванг (Xin Qing), Шарни Винсон (Lady Crassus), Элис Браун (Queen), Жозеф Вейт (Publius - The Roman Prince), Пол Филип Кларк (General Doramis), Кевин Ли (Roman Solider), Лори (Persian Queen)
Описание:
Действие фильма разворачивается в Древнем Китае во времена правления династии Хань. Римский полководец Луция с легионом своих солдат оказывается на территории Китая. В это же время командир отряда охраны Западного региона Хо Ань в результате действий своих врагов становится рабом. И этим двум воинам было суждено встретиться в Западной пустыне, где развернётся эпическое сражение. Однако биться они будут не друг против друга, как можно было бы подумать, а против алчного императора Тиберия за суверенитет Китая.
Рейтинг:

MPAA: R - Лицам до 17 лет обязательно присутствие взрослого
Качество: BDRip 720p
Формат: MKV
Видео кодек: AVC
Аудио кодек: AC3
Видео: AVC, 1280x536 (2.40:1), 7708 kbps, 24 fps, 0,468 bpp
Аудио#1: русский / AC3 / 5.1 / 48 kHz / 640 kbps / 16 bit
Аудио#2: китайский / AC3 / 5.1 / 48 kHz / 640 kbps / 16 bit
Навигация по главам: есть
Релиз группы:
Автор рипа: potroks

Код:

General
Unique ID                                : 194195915938639081291164262767254257163 (0x9218C5E099EBBEDDB733E1403A4F3E0B)
Complete name                            : N:\Боевик\Mech'.Drakona.2015.DUAL.BDRip.720p.-HELLYWOOD.mkv
Format                                   : Matroska
Format version                           : Version 4 / Version 2
File size                                : 7.98 GiB
Duration                                 : 2h 7mn
Overall bit rate                         : 8 989 Kbps
Movie name                               : Tian jiang xiong shi (2015) - HELLYWOOD
Encoded date                             : UTC 2015-07-13 09:32:35
Writing application                      : mkvmerge v5.9.0 ('On The Loose') built on Dec 15 2012 16:39:58
Writing library                          : libebml v1.3.0   libmatroska v1.4.0

Video
ID                                       : 1
Format                                   : AVC
Format/Info                              : Advanced Video Codec
Format profile                           : High@L4.1
Format settings, CABAC                   : Yes
Format settings, ReFrames                : 12 frames
Codec ID                                 : V_MPEG4/ISO/AVC
Duration                                 : 2h 7mn
Bit rate                                 : 7 708 Kbps
Width                                    : 1 280 pixels
Height                                   : 536 pixels
Display aspect ratio                     : 2.40:1
Frame rate                               : 24.000 fps
Color space                              : YUV
Chroma subsampling                       : 4:2:0
Bit depth                                : 8 bits
Scan type                                : Progressive
Bits/(Pixel*Frame)                       : 0.468
Stream size                              : 6.69 GiB (84%)
Title                                    : potroks
Writing library                          : x264 core 146 r2538 121396c
Encoding settings                        : cabac=1 / ref=12 / deblock=1:-3:-2 / analyse=0x3:0x113 / me=umh / subme=11 / psy=1 / psy_rd=1.03:0.06 / mixed_ref=1 / me_range=48 / chroma_me=1 / trellis=2 / 8x8dct=1 / cqm=0 / deadzone=21,11 / fast_pskip=0 / chroma_qp_offset=-3 / threads=9 / lookahead_threads=2 / sliced_threads=0 / nr=0 / decimate=1 / interlaced=0 / bluray_compat=0 / constrained_intra=0 / bframes=13 / b_pyramid=2 / b_adapt=2 / b_bias=0 / direct=3 / weightb=1 / open_gop=0 / weightp=2 / keyint=250 / keyint_min=23 / scenecut=40 / intra_refresh=0 / rc_lookahead=60 / rc=2pass / mbtree=0 / bitrate=7708 / ratetol=1.0 / qcomp=0.70 / qpmin=0 / qpmax=69 / qpstep=4 / cplxblur=20.0 / qblur=0.5 / vbv_maxrate=14000 / vbv_bufsize=14000 / nal_hrd=none / filler=0 / ip_ratio=1.35 / pb_ratio=1.25 / aq=1:0.70
Language                                 : English
Default                                  : Yes
Forced                                   : No

Audio #1
ID                                       : 2
Format                                   : AC-3
Format/Info                              : Audio Coding 3
Mode extension                           : CM (complete main)
Codec ID                                 : A_AC3
Duration                                 : 2h 7mn
Bit rate mode                            : Constant
Bit rate                                 : 640 Kbps
Channel(s)                               : 6 channels
Channel positions                        : Front: L C R, Side: L R, LFE
Sampling rate                            : 48.0 KHz
Bit depth                                : 16 bits
Compression mode                         : Lossy
Delay relative to video                  : 8s 100ms
Stream size                              : 582 MiB (7%)
Title                                    : AVO | DD 5.1 @ 640 kbps - A. Dol'skij
Language                                 : Russian
Default                                  : Yes
Forced                                   : No

Audio #2
ID                                       : 3
Format                                   : AC-3
Format/Info                              : Audio Coding 3
Mode extension                           : CM (complete main)
Codec ID                                 : A_AC3
Duration                                 : 2h 7mn
Bit rate mode                            : Constant
Bit rate                                 : 640 Kbps
Channel(s)                               : 6 channels
Channel positions                        : Front: L C R, Side: L R, LFE
Sampling rate                            : 48.0 KHz
Bit depth                                : 16 bits
Compression mode                         : Lossy
Stream size                              : 582 MiB (7%)
Title                                    : Original | DD 5.1 @ 640 kbps
Language                                 : Chinese
Default                                  : No
Forced                                   : No

Text
ID                                       : 4
Format                                   : UTF-8
Codec ID                                 : S_TEXT/UTF8
Codec ID/Info                            : UTF-8 Plain Text
Language                                 : English
Default                                  : No
Forced                                   : No

Menu
00:00:00.000                             : en:Chapter 01
00:06:37.291                             : en:Chapter 02
00:13:24.583                             : en:Chapter 03
00:23:58.875                             : en:Chapter 04
00:33:57.041                             : en:Chapter 05
00:40:30.375                             : en:Chapter 06
00:50:12.583                             : en:Chapter 07
00:59:04.375                             : en:Chapter 08
01:04:50.500                             : en:Chapter 09
01:14:54.541                             : en:Chapter 10
01:19:41.291                             : en:Chapter 11
01:26:44.416                             : en:Chapter 12
01:32:30.333                             : en:Chapter 13
01:38:30.250                             : en:Chapter 14
01:45:03.875                             : en:Chapter 15
01:52:01.541                             : en:Chapter 16

piratbit.pw



Скачать Меч дракона через торрент http://i69.fastpic.ru/big/2015/0713/76/8801be3264980052c5e327776eb51b76.png Скачать фильм Меч дракона через торрент бесплантно в хорошем качестве Описание: Действие фильма разворачивается в Древнем Китае во времена правления династии Хань. Римский полководец Луция с легионом своих ... 9.8 10 6
Торрент: Зарегистрирован [2015-07-13 11:09] · скачан: 165 раз
Статус: √ проверено
Размер: 7.98 GB
Как cкачать? Как скачать Меч дракона через торрент | UTorrent

% Раздел Тема Автор DL S | L
Фильмы с авторской озвучкой [ 16.7 GB ] Меч дракона / Tian jiang xiong shi [2015 BDRip 1080p от HDClub / AVO Дольский] Ворон Скачать
1 | 0
Фильмы с авторской озвучкой [ 1.46 GB ] Меч дракона / Tian jiang xiong shi [2015 BDRip / AVO Дольский] Ворон Скачать
1 | 0

28-11-2019 20:33  

Отключить всю рекламу на сайте

    Дорогой пользователь! Огромная просьба, поблагодарите релизера, оцените раздачу и оставьте свои комментарий, если Вы скачали Меч дракона через торрент бесплатно! Внесите свою лепту в развитие PiratBit!
    Комментировать посты могут только пользователи прошедшие не сложную регистрацию
    Показать сообщения:    

    Меч дракона через торрент
    Скачать бесплатно Меч дракона
    Меч дракона скачать торрент
    Меч дракона смотреть онлайн
    Cкачать фильм Меч дракона бесплатно
    Меч дракона скачать торрент в хорошем качестве
    Меч дракона смотреть онлайн бесплатно в хорошем качестве


    Вы не можете начинать темы
    Вы не можете отвечать на сообщения
    Вы не можете редактировать свои сообщения
    Вы не можете удалять свои сообщения
    Вы не можете голосовать в опросах
    Вы не можете прикреплять файлы к сообщениям
    Вы можете скачивать файлы