1 сезон

3 сезон

iTunes

1

iTunes

DUB Netflix

iTunes

13

1 сезон

RePack

30

Deluxe

pack

Легкие деньги

ВАЖНО

ИГРА 18+

pack

RePack

MK11

RePack

jed

RePack

fifa19

RePack

RDR2

RePack

NEED FOR SPEED™ PAYBACK

4 сезон

9 сезон

Бесстыжие 9 сезон

Все сериалы

все сериалы на PB.wtf

RePack

FAR CRY 5

Anonymous, доброе утро, мы не успеваем до 1 числа собрать деньги на оплату серверов, помогите нам пожалуйста в это трудное время. В качестве благодарности мы отключим Вам всю рекламу на сайте (укажите свой ник в строку Ваше имя)!

×
  
Magnet ссылка

Аллилуйя / Alléluia (Фабрис Дю Вельц) [2014, триллер, драма, DVDRip, VO] piratbit.pw

Аллилуйя через торрент piratbit.pw

Размер: 1.41 GB | Добавлен: 5 лет 11 мес. назад | Торрент скачан:82 раза
Скачать  

13-07-2015 05:56 Аллилуйя Скачать торрент  


Аллилуйя / Alléluia


ИНФОРМАЦИЯ:
Год выпуска:2014
Страна: Бельгия, Франция
Жанр: триллер, драма
Продолжительность: 01:29:24
Перевод: Любительский (одноголосый)[liosaa]
Режиссер: Фабрис Дю Вельц

В Ролях:


Лола Дуэньяс (Gloria), Лоран Люка (Michel), Элена Ногуэрра (Solange), Эдит Ле Мерди (Marguerite), Энн-Мари Луп (Gabriella), Стефан Биссо (Madeleine), Давид Муржиа (Père Luis), Рено Раттен (Le réceptionniste), Филипп Резимон (Fritkot man)

Описание:
Мать-одиночка Глория встречается с мужчиной, который нашел ее на сайте знакомств. Ужин, вино, секс - все настолько безупречно, что наутро впечатлительная Глория уже не может представить свою жизнь без Мишеля, который оказывается профессиональным жиголо. Но страсть уже полностью завладела Глорией - чтобы не расставаться с Мишелем, она становится его верной компаньоншей. И только ее неконтролируемая ревность мешает проворачивать аферы с доверчивыми вдовами бескровно...

  • Мировая премьера:22 мая 2014

    ТЕХ.ДАННЫЕ:
    Качество: DVDRip
    Формат: AVI
    Видео кодек: DivX 4
    Аудио кодек: AC3
    Видео: DivX 4, 720x304 (2.35:1), 1782 kbps, 25 fps, 0,326 bpp
    Аудио: AC3 / 2.0 / 48 kHz / 384 kbps / 16 bit


    Код:

    General
    Complete name                            : D:\Торенты\Alleluia.2014.DVDRip.avi
    Format                                   : AVI
    Format/Info                              : Audio Video Interleave
    File size                                : 1.41 GiB
    Duration                                 : 1h 29mn
    Overall bit rate                         : 2 265 Kbps
    Writing application                      : VirtualDubMod 1.5.10.2 (build 2540/release)
    Writing library                          : VirtualDubMod build 2540/release

    Video
    ID                                       : 0
    Format                                   : MPEG-4 Visual
    Format profile                           : Advanced Simple@L4
    Format settings, BVOP                    : 2
    Format settings, QPel                    : No
    Format settings, GMC                     : No warppoints
    Format settings, Matrix                  : Default (H.263)
    Codec ID                                 : DIVX
    Codec ID/Info                            : Project Mayo
    Codec ID/Hint                            : DivX 4
    Duration                                 : 1h 29mn
    Bit rate                                 : 1 782 Kbps
    Width                                    : 720 pixels
    Height                                   : 304 pixels
    Display aspect ratio                     : 2.35:1
    Frame rate                               : 25.000 fps
    Color space                              : YUV
    Chroma subsampling                       : 4:2:0
    Bit depth                                : 8 bits
    Scan type                                : Progressive
    Compression mode                         : Lossy
    Bits/(Pixel*Frame)                       : 0.326
    Stream size                              : 1.11 GiB (79%)
    Writing library                          : XviD 64

    Audio
    ID                                       : 1
    Format                                   : AC-3
    Format/Info                              : Audio Coding 3
    Mode extension                           : CM (complete main)
    Codec ID                                 : 2000
    Duration                                 : 1h 29mn
    Bit rate mode                            : Constant
    Bit rate                                 : 384 Kbps
    Channel(s)                               : 2 channels
    Channel positions                        : Front: L R
    Sampling rate                            : 48.0 KHz
    Bit depth                                : 16 bits
    Compression mode                         : Lossy
    Stream size                              : 246 MiB (17%)
    Alignment                                : Split accross interleaves

    Скриншоты:


    © Оформление by Ворон
    piratbit.pw



  • Скачать Аллилуйя через торрент https://pic1.kartinco.top/images/61/ordi9.jpg Скачать фильм Аллилуйя через торрент бесплантно в хорошем качестве Описание: Мать-одиночка Глория встречается с мужчиной, который нашел ее на сайте знакомств. Ужин, вино, секс - все настолько безупречно, ... 10 10 4
    Торрент: Зарегистрирован [2015-07-13 05:56] · скачан: 82 раз
    Статус: T временная
    Размер: 1.41 GB
    Как cкачать? Как скачать Аллилуйя через торрент | UTorrent

    28-11-2019 20:33  

    Отключить всю рекламу на сайте

      Дорогой пользователь! Огромная просьба, поблагодарите релизера, оцените раздачу и оставьте свои комментарий, если Вы скачали Аллилуйя через торрент бесплатно! Внесите свою лепту в развитие PiratBit!
      Комментировать посты могут только пользователи прошедшие не сложную регистрацию
      Показать сообщения:    

      Аллилуйя через торрент
      Скачать бесплатно Аллилуйя
      Аллилуйя скачать торрент
      Аллилуйя смотреть онлайн
      Cкачать фильм Аллилуйя бесплатно
      Аллилуйя скачать торрент в хорошем качестве
      Аллилуйя смотреть онлайн бесплатно в хорошем качестве


      Вы не можете начинать темы
      Вы не можете отвечать на сообщения
      Вы не можете редактировать свои сообщения
      Вы не можете удалять свои сообщения
      Вы не можете голосовать в опросах
      Вы не можете прикреплять файлы к сообщениям
      Вы можете скачивать файлы