1 сезон

1 сезон

iTunes

1

КиноПоиск HD

Кинопоиск HD

iTunes

13

1 сезон

RePack

30

Новинка

ВАЖНО

ИГРА 18+

pack

RePack

MK11
pack

Легкие деньги

RePack

jed

RePack

fifa19

RePack

RDR2

RePack

NEED FOR SPEED™ PAYBACK

4 сезон

9 сезон

Бесстыжие 9 сезон

Все сериалы

все сериалы на PB.wtf

RePack

FAR CRY 5
  
Magnet ссылка

Мэгги / Maggie (Генри Хобсон) [2015, драма, триллер, ужасы, BDRip 720p, MVO+AVO+DVO+VO] piratbit.pw

Мэгги через торрент piratbit.pw

Размер: 7.94 GB | Добавлен: 5 лет 9 мес. назад | Торрент скачан:47 раз
Скачать  

12-07-2015 16:38 Мэгги Скачать торрент  

Мэгги / Maggie

  • Год выхода: 2015
  • Жанр: драма, триллер, ужасы
  • Страна: США, Швейцария
  • Продолжительность: 01:35:04
  • Перевод: Авторский (одноголосый)+MVO+VO
  • Cубтитры: русские (ViruseProject), английские (Full), английские (SDH),
  • Режиссер: Генри Хобсон
  • В ролях:

    Арнольд Шварценеггер (Wade Vogel), Эбигейл Бреслин (Maggie Vogel), Джоэли Ричардсон (Caroline), Дуглас М. Гриффин (Ray), Дж.Д. Эвермор (Holt), Рэйчел Уитман Гровс (Bonnie), Джоди Мур (Dr. Vern Kaplan), Брайс Ромеро (Trent), Рэден Грир (Allie), Эйден Флауэрс (Bobby), Карсен Флауэрс (Molly), Уолтер Фон Хьюн (Security Officer)
  • Описание:

    Девочка-подросток Мэгги заражается болезнью, медленно превращающей инфицированных в зомби. Правительство организует карантин для инфицированных, где их помещают в изоляцию. Её любящий отец не готов помещать её в карантин, и она живёт вместе с ним.

  • Качество: BDRip 720p
  • Формат: MKV
  • Видео кодек: AVC
  • Аудио кодек: AC3
  • Видео: AVC, 1280x534 (2.40:1),10361 kbps, 23,976 fps, 0,618 bpp
  • Аудио №1: русский / AC3 / 5.1 / 48 kHz / 384 kbps / 16 bit || - AVO, Д.Есарев
  • Аудио №2: русский / AC3 / 5.1 / 48 kHz / 384 kbps / 16 bit || - MVO, ViruseProject
  • Аудио №3: русский / AC3 / 5.1 / 48 kHz / 448 kbps / 16 bit || - MVO, HamsterStudio
  • Аудио №4: русский / AC3 / 5.1 / 48 kHz / 384 kbps / 16 bit || - VO, Lord32x
  • Навигация по главам: есть

    Автор рипа: Leonardo 59

    Код:

    General
    Unique ID                                : 21792114292612993103694422629447005117 (0x106502301EED347BB203779EB00A73BD)
    Complete name                            : D:\Торенты\Мэгги.2015.720p.BluRay.x264-LEONARDO.mkv
    Format                                   : Matroska
    Format version                           : Version 2
    File size                                : 7.94 GiB
    Duration                                 : 1h 35mn
    Overall bit rate                         : 12.0 Mbps
    Movie name                               : -=LEONARDO=-
    Encoded date                             : UTC 2015-07-12 13:22:27
    Writing application                      : mkvmerge v5.0.1 ('Es ist Sommer') built on Oct 23 2011 00:46:40
    Writing library                          : libebml v1.2.2 + libmatroska v1.3.0
    Attachment                               : Yes

    Video
    ID                                       : 1
    Format                                   : AVC
    Format/Info                              : Advanced Video Codec
    Format profile                           : High@L4.1
    Format settings, CABAC                   : Yes
    Format settings, ReFrames                : 9 frames
    Codec ID                                 : V_MPEG4/ISO/AVC
    Duration                                 : 1h 35mn
    Bit rate                                 : 10.1 Mbps
    Width                                    : 1 280 pixels
    Height                                   : 534 pixels
    Display aspect ratio                     : 2.40:1
    Frame rate                               : 23.976 fps
    Color space                              : YUV
    Chroma subsampling                       : 4:2:0
    Bit depth                                : 8 bits
    Scan type                                : Progressive
    Bits/(Pixel*Frame)                       : 0.618
    Stream size                              : 6.72 GiB (85%)
    Writing library                          : x264 core 125 r2208 d9d2288
    Encoding settings                        : cabac=1 / ref=9 / deblock=1:-3:-3 / analyse=0x3:0x133 / me=umh / subme=11 / psy=1 / psy_rd=1.00:0.00 / mixed_ref=1 / me_range=32 / chroma_me=1 / trellis=2 / 8x8dct=1 / cqm=0 / deadzone=21,11 / fast_pskip=0 / chroma_qp_offset=-2 / threads=12 / lookahead_threads=2 / sliced_threads=0 / nr=0 / decimate=1 / interlaced=0 / bluray_compat=0 / constrained_intra=0 / bframes=8 / b_pyramid=2 / b_adapt=2 / b_bias=0 / direct=1 / weightb=1 / open_gop=0 / weightp=2 / keyint=250 / keyint_min=23 / scenecut=40 / intra_refresh=0 / rc=crf / mbtree=0 / crf=17.0 / qcomp=0.60 / qpmin=0 / qpmax=69 / qpstep=4 / ip_ratio=1.40 / pb_ratio=1.30 / aq=1:1.00
    Language                                 : English
    Default                                  : Yes
    Forced                                   : No

    Audio #1
    ID                                       : 2
    Format                                   : AC-3
    Format/Info                              : Audio Coding 3
    Mode extension                           : CM (complete main)
    Codec ID                                 : A_AC3
    Duration                                 : 1h 35mn
    Bit rate mode                            : Constant
    Bit rate                                 : 384 Kbps
    Channel(s)                               : 6 channels
    Channel positions                        : Front: L C R, Side: L R, LFE
    Sampling rate                            : 48.0 KHz
    Bit depth                                : 16 bits
    Compression mode                         : Lossy
    Stream size                              : 261 MiB (3%)
    Title                                    : D.Esarev
    Language                                 : Russian
    Default                                  : Yes
    Forced                                   : Yes

    Audio #2
    ID                                       : 3
    Format                                   : AC-3
    Format/Info                              : Audio Coding 3
    Mode extension                           : CM (complete main)
    Codec ID                                 : A_AC3
    Duration                                 : 1h 35mn
    Bit rate mode                            : Constant
    Bit rate                                 : 384 Kbps
    Channel(s)                               : 6 channels
    Channel positions                        : Front: L C R, Side: L R, LFE
    Sampling rate                            : 48.0 KHz
    Bit depth                                : 16 bits
    Compression mode                         : Lossy
    Stream size                              : 261 MiB (3%)
    Title                                    : ViruseProject
    Language                                 : Russian
    Default                                  : No
    Forced                                   : No

    Audio #3
    ID                                       : 4
    Format                                   : AC-3
    Format/Info                              : Audio Coding 3
    Mode extension                           : CM (complete main)
    Codec ID                                 : A_AC3
    Duration                                 : 1h 35mn
    Bit rate mode                            : Constant
    Bit rate                                 : 448 Kbps
    Channel(s)                               : 6 channels
    Channel positions                        : Front: L C R, Side: L R, LFE
    Sampling rate                            : 48.0 KHz
    Bit depth                                : 16 bits
    Compression mode                         : Lossy
    Stream size                              : 305 MiB (4%)
    Title                                    : HamsterStudio
    Language                                 : Russian
    Default                                  : No
    Forced                                   : No

    Audio #4
    ID                                       : 5
    Format                                   : AC-3
    Format/Info                              : Audio Coding 3
    Mode extension                           : CM (complete main)
    Codec ID                                 : A_AC3
    Duration                                 : 1h 35mn
    Bit rate mode                            : Constant
    Bit rate                                 : 384 Kbps
    Channel(s)                               : 6 channels
    Channel positions                        : Front: L C R, Side: L R, LFE
    Sampling rate                            : 48.0 KHz
    Bit depth                                : 16 bits
    Compression mode                         : Lossy
    Stream size                              : 261 MiB (3%)
    Title                                    : Lord32x
    Language                                 : Russian
    Default                                  : No
    Forced                                   : No

    Text #1
    ID                                       : 6
    Format                                   : UTF-8
    Codec ID                                 : S_TEXT/UTF8
    Codec ID/Info                            : UTF-8 Plain Text
    Title                                    : ViruseProject
    Language                                 : Russian
    Default                                  : No
    Forced                                   : No

    Text #2
    ID                                       : 7
    Format                                   : UTF-8
    Codec ID                                 : S_TEXT/UTF8
    Codec ID/Info                            : UTF-8 Plain Text
    Title                                    : Full
    Language                                 : English
    Default                                  : No
    Forced                                   : No

    Text #3
    ID                                       : 8
    Format                                   : UTF-8
    Codec ID                                 : S_TEXT/UTF8
    Codec ID/Info                            : UTF-8 Plain Text
    Title                                    : SDH
    Language                                 : English
    Default                                  : No
    Forced                                   : No

    Menu
    00:00:00.000                             : en:Chapter 01
    00:05:52.935                             : en:Chapter 02
    00:11:26.102                             : en:Chapter 03
    00:15:55.120                             : en:Chapter 04
    00:21:30.497                             : en:Chapter 05
    00:26:50.609                             : en:Chapter 06
    00:35:09.065                             : en:Chapter 07
    00:39:17.938                             : en:Chapter 08
    00:43:35.779                             : en:Chapter 09
    00:50:51.131                             : en:Chapter 10
    00:58:38.014                             : en:Chapter 11
    01:02:09.517                             : en:Chapter 12
    01:10:28.807                             : en:Chapter 13
    01:17:32.189                             : en:Chapter 14
    01:23:27.502                             : en:Chapter 15
    01:26:38.693                             : en:Chapter 16

    Скриншоты:


    © Оформление by -Lexx- piratbit.pw



  • Скачать Мэгги через торрент https://pic.kartinco.top/images/6/stazu.jpg Скачать фильм Мэгги через торрент бесплантно в хорошем качестве Описание: Девочка-подросток Мэгги заражается болезнью, медленно превращающей инфицированных в зомби. Правительство организует карантин для ... 10 10 6
    Торрент: Зарегистрирован [2015-07-12 16:38] · скачан: 47 раз
    Статус: √ проверено
    Размер: 7.94 GB
    Как cкачать? Как скачать Мэгги через торрент | UTorrent

    % Раздел Тема Автор DL S | L
    Фильмы (Blu-ray, BD-Remux, HDDVD) [ 18.75 GB ] План Мэгги / Maggie's Plan [2016 BDRemux 1080p] от ExKinoRay / Russian Mafia Скачать
    1 | 0
    T Релизы по Парсеру [Игры, Сериалы и Фильмы и другое...] [ 10.17 GB ] План Мэгги / Maggie's Plan BDRip 1080p / Ворон Скачать
    1 | 0
    T Релизы по Парсеру [Игры, Сериалы и Фильмы и другое...] [ 1.46 GB ] План Мэгги / Maggie's Plan HDRip / Ворон Скачать
    1 | 0
    Видео для КПК и Смартфонов [ 437 MB ] Мэгги / Maggie [2015 HDRip / КПК / ] Ворон Скачать
    1 | 0
    T Фильмы (BDRip, HDrip-AVC) (48-60 fps) [ 2.91 GB ] Мэгги / Maggie [2014 Швейцария BDRip-AVC 60fps Любительский многоголосый] от R.G. HD-Films Tiberiumsun69 Скачать
    1 | 0
    Фильмы (Blu-ray, BD-Remux, HDDVD) [ 26.72 GB ] Мэгги / Maggie [2015 BDRemux 1080p] MVO+AVO+DVO+VO Ворон Скачать
    1 | 0
    Фильмы с авторской озвучкой [ 1.41 GB ] Мэгги / Maggie [2014 Швейцария WEB-DLRip Авторский GEKADOL Скачать
    1 | 0

    28-11-2019 20:33  

    Отключить всю рекламу на сайте

    28-09-2015 10:10 Мэгги Скачать торрент  

    очень скучный фильм шварц просто как манекен и всё одно и то же лицо отчаяния всё 2/10 оценка. сценарий 0piratbit.pw



      Дорогой пользователь! Огромная просьба, поблагодарите релизера, оцените раздачу и оставьте свои комментарий, если Вы скачали Мэгги через торрент бесплатно! Внесите свою лепту в развитие PiratBit!
      Комментировать посты могут только пользователи прошедшие не сложную регистрацию
      Показать сообщения:    

      Мэгги через торрент
      Скачать бесплатно Мэгги
      Мэгги скачать торрент
      Мэгги смотреть онлайн
      Cкачать фильм Мэгги бесплатно
      Мэгги скачать торрент в хорошем качестве
      Мэгги смотреть онлайн бесплатно в хорошем качестве


      Вы не можете начинать темы
      Вы не можете отвечать на сообщения
      Вы не можете редактировать свои сообщения
      Вы не можете удалять свои сообщения
      Вы не можете голосовать в опросах
      Вы не можете прикреплять файлы к сообщениям
      Вы можете скачивать файлы