1 сезон

1 сезон

iTunes

1

КиноПоиск HD

Кинопоиск HD

iTunes

13

1 сезон

RePack

30

Новинка

ВАЖНО

ИГРА 18+

pack

RePack

MK11
pack

Легкие деньги

RePack

jed

RePack

fifa19

RePack

RDR2

RePack

NEED FOR SPEED™ PAYBACK

4 сезон

9 сезон

Бесстыжие 9 сезон

Все сериалы

все сериалы на PB.wtf

RePack

FAR CRY 5
  
Magnet ссылка

Скрибблер / Писака / The Scribbler (Джон Суитц / John Suits) [2014, США, фантастика, триллер, детектив, BDRip 720p, Авторский (одноголосый) [Матвеев Алексей (Doctor Joker)] piratbit.pw

Скрибблер через торрент piratbit.pw

Размер: 3.7 GB | Добавлен: 5 лет 9 мес. назад | Торрент скачан:50 раз
Скачать  

12-07-2015 13:48 Скрибблер Скачать торрент  

Скрибблер / Писака / The Scribbler
«Unzip your head»

  • Год выхода: 2014
  • Жанр: фантастика, триллер, детектив
  • Страна: США
  • Продолжительность: 01:29:27
  • Перевод: Авторский (одноголосый) [Матвеев Алексей (Doctor Joker)]
  • Режиссер: Джон Суитц / John Suits
  • В ролях:

    Кэти Кэссиди (Suki), Гаррет Диллахант (Hogan), Мишель Трахтенберг (Alice), Элиза Душку (Silk), Майкл Империоли (Moss), Билл Кэмпбелл (Sinclair), Джина Гершон (Cleo), Саша Грэй (Bunny), Кунал Нэйэр (Karim), Эшлинн Йенни (Emily), Т.В. Карпио (Satomi), Ричард Рили (Officer O'Reilly)
  • Описание:

    События фильма разворачиваются вокруг молодой женщины, только что выписавшейся из психбольницы. Ее направляют в специальный медицинский корпус, который должен завершить лечение и подготовить девушку к нормальной жизни в социуме. Там она должна избавиться от своих побочных личностей, из-за которых загремела в психушку. После ее прибытия персонал отдела начинает вымирать с огромной скоростью, при достаточно необычных обстоятельствах...


  • Качество: BDRip 720p
  • Формат: MKV
  • Видео кодек: AVC
  • Аудио кодек: AC3
  • Видео: AVC, 1280x544 (2.35:1), 5480 kbps, 23,976 fps, 0,328 bpp
  • Аудио: русский / AC3 / 5.1 / 48 kHz / 448 kbps / 16 bit ||

    Код:

    General
    Unique ID                                : 254515411191900750383403582841402586291 (0xBF79E29AA60E2D9F8CFA4FDC3E9A74B3)
    Complete name                            : D:\Торенты\P1cAkA.2014.A1.BDRip.720p.mkv
    Format                                   : Matroska
    Format version                           : Version 4 / Version 2
    File size                                : 3.70 GiB
    Duration                                 : 1h 29mn
    Overall bit rate                         : 5 928 Kbps
    Movie name                               : Релиз Переулка Переводмана
    Encoded date                             : UTC 2015-07-12 07:22:25
    Writing application                      : mkvmerge v6.0.0 ('Coming Up For Air') built on Jan 20 2013 09:52:00
    Writing library                          : libebml v1.3.0 + libmatroska v1.4.0
    Cover                                    : cover.jpg

    Video
    ID                                       : 1
    Format                                   : AVC
    Format/Info                              : Advanced Video Codec
    Format profile                           : High@L4.1
    Format settings, CABAC                   : Yes
    Format settings, ReFrames                : 5 frames
    Codec ID                                 : V_MPEG4/ISO/AVC
    Duration                                 : 1h 29mn
    Bit rate                                 : 5 480 Kbps
    Width                                    : 1 280 pixels
    Height                                   : 544 pixels
    Display aspect ratio                     : 2.35:1
    Frame rate                               : 23.976 fps
    Color space                              : YUV
    Chroma subsampling                       : 4:2:0
    Bit depth                                : 8 bits
    Scan type                                : Progressive
    Bits/(Pixel*Frame)                       : 0.328
    Stream size                              : 3.35 GiB (90%)
    Title                                    : x264
    Writing library                          : x264 core 142 r2479 dd79a61
    Encoding settings                        : cabac=1 / ref=5 / deblock=1:0:0 / analyse=0x3:0x133 / me=umh / subme=7 / psy=1 / psy_rd=1.00:0.00 / mixed_ref=1 / me_range=16 / chroma_me=1 / trellis=1 / 8x8dct=1 / cqm=0 / deadzone=21,11 / fast_pskip=0 / chroma_qp_offset=-2 / threads=6 / lookahead_threads=1 / sliced_threads=0 / nr=0 / decimate=1 / interlaced=0 / bluray_compat=0 / constrained_intra=0 / bframes=3 / b_pyramid=2 / b_adapt=2 / b_bias=0 / direct=3 / weightb=1 / open_gop=0 / weightp=2 / keyint=240 / keyint_min=23 / scenecut=40 / intra_refresh=0 / rc_lookahead=50 / rc=2pass / mbtree=1 / bitrate=5480 / ratetol=1.0 / qcomp=0.60 / qpmin=0 / qpmax=69 / qpstep=4 / cplxblur=20.0 / qblur=0.5 / ip_ratio=1.40 / aq=1:1.00
    Language                                 : English
    Default                                  : Yes
    Forced                                   : No

    Audio
    ID                                       : 2
    Format                                   : AC-3
    Format/Info                              : Audio Coding 3
    Mode extension                           : CM (complete main)
    Codec ID                                 : A_AC3
    Duration                                 : 1h 29mn
    Bit rate mode                            : Constant
    Bit rate                                 : 448 Kbps
    Channel(s)                               : 6 channels
    Channel positions                        : Front: L C R, Side: L R, LFE
    Sampling rate                            : 48.0 KHz
    Bit depth                                : 16 bits
    Compression mode                         : Lossy
    Stream size                              : 287 MiB (8%)
    Title                                    : AVO Doctor Joker
    Language                                 : Russian
    Default                                  : Yes
    Forced                                   : No

    Скриншоты:


    © Оформление by -Lexx-
    piratbit.pw



  • Скачать Скрибблер через торрент https://pic.kartinco.top/images/6/stazu.jpg Скачать фильм Скрибблер через торрент бесплантно в хорошем качестве Описание: События фильма разворачиваются вокруг молодой женщины, только что выписавшейся из психбольницы. Ее направляют в специальный ... 10 10 3
    Торрент: Зарегистрирован [2015-07-12 13:48] · скачан: 50 раз
    Статус: √ проверено
    Размер: 3.7 GB
    Как cкачать? Как скачать Скрибблер через торрент | UTorrent

    % Раздел Тема Автор DL S | L
    Фильмы с авторской озвучкой [ 10.38 GB ] Скрибблер / Писака / The Scribbler [2014 BDRip 1080p Авторский [Матвеев Алексей ] Ворон Скачать
    1 | 0
    Фильмы с авторской озвучкой [ 1.46 GB ] Скрибблер / Писака / The Scribbler [2014 HDRip Авторский [Матвеев Алексей ] Ворон Скачать
    1 | 0
    T Фильмы 2014 (Звук TS, Cam, VO, DVO) [ 1.45 GB ] Скрибблер / Писака / The Scribbler [2014 WEB-DLRip Любительский [Savetig Studios] Ворон Скачать
    1 | 0
    T Фильмы (WEB-DL 720p, 1080p) [ 2.66 GB ] Скрибблер / Писака / The Scribbler [2014 WEB-DL 720p Любительский [Savetig Studios] Ворон Скачать
    1 | 0
    T Фильмы 2014 (Звук TS, Cam, VO, DVO) [ 1.46 GB ] Скрибблер / Писака / The Scribbler [2014 WEB-DLRip Любительский [Алексей Толмачев] Ворон Скачать
    1 | 0

    28-11-2019 20:33  

    Отключить всю рекламу на сайте

      Дорогой пользователь! Огромная просьба, поблагодарите релизера, оцените раздачу и оставьте свои комментарий, если Вы скачали Скрибблер через торрент бесплатно! Внесите свою лепту в развитие PiratBit!
      Комментировать посты могут только пользователи прошедшие не сложную регистрацию
      Показать сообщения:    

      Скрибблер через торрент
      Скачать бесплатно Скрибблер
      Скрибблер скачать торрент
      Скрибблер смотреть онлайн
      Cкачать фильм Скрибблер бесплатно
      Скрибблер скачать торрент в хорошем качестве
      Скрибблер смотреть онлайн бесплатно в хорошем качестве


      Вы не можете начинать темы
      Вы не можете отвечать на сообщения
      Вы не можете редактировать свои сообщения
      Вы не можете удалять свои сообщения
      Вы не можете голосовать в опросах
      Вы не можете прикреплять файлы к сообщениям
      Вы можете скачивать файлы