1 сезон

3 сезон

iTunes

1

iTunes

DUB Netflix

iTunes

13

1 сезон

RePack

30

Deluxe

pack

Легкие деньги

ВАЖНО

ИГРА 18+

pack

RePack

MK11

RePack

jed

RePack

fifa19

RePack

RDR2

RePack

NEED FOR SPEED™ PAYBACK

4 сезон

9 сезон

Бесстыжие 9 сезон

Все сериалы

все сериалы на PB.wtf

RePack

FAR CRY 5

Anonymous, доброй ночи, мы не успеваем до 1 числа собрать деньги на оплату серверов, помогите нам пожалуйста в это трудное время. В качестве благодарности мы отключим Вам всю рекламу на сайте (укажите свой ник в строку Ваше имя)!

×
  
Magnet ссылка

Моя девушка – зомби / Burying the Ex (Джо Данте) [2014, ужасы, комедия, HDRip, Любительский (двухголосый) [ColdFilm] piratbit.pw

Моя девушка – зомби через торрент piratbit.pw

Размер: 1.37 GB | Добавлен: 5 лет 11 мес. назад | Торрент скачан:120 раз
Скачать  

12-07-2015 08:03 Моя девушка – зомби Скачать торрент  


Моя девушка – зомби / Burying the Ex
««Some relationships just won't die»»

ИНФОРМАЦИЯ:
Год выпуска:2014
Страна: США
Жанр: ужасы, комедия
Продолжительность: 01:29:31
Перевод: Любительский (двухголосый) [ColdFilm]
Режиссер: Джо Данте

В Ролях:


Антон Ельчин (Max), Эшли Грин (Evelyn), Александра Даддарио (Olivia), Оливер Купер (Travis), Озиома Акага (Kat), Марк Алан Браун (Goth Bartender), Эрика Боуи (Travis' Girl), Гэбриэлль Кристиан (Coco), Арчи Хан (Chuck), Томоко Карина (Shopping Girl), Стефани Кениг (Kendra), Wyndoline Landry (Demetria)

Описание:
Фильм рассказывает о Максе и Эвелин, отношения которых сильно портятся после того, как они начинают жить вместе. Макс обнаруживает, что Эвелин - упрямая и привыкшая всех контролировать и всеми командовать телка, но боится разрывать с ней отношения. Судьба помогает ему в этой сложной жизненной ситуации: вследствие нелепой случайности Эвелин погибает, и Макс начинает жить полной жизнью. Вскоре он знакомится с Оливией и даже готовится начать с ней совместную жизнь, но Эвелин решает восстать из могилы и вернуть своего бойфренда любой ценой, даже если для этого ей придется его самого превратить в зомби.

  • Мировая премьера:4 сентября 2014

    ТЕХ.ДАННЫЕ:
    Качество: HDRip
    Формат: AVI
    Видео кодек: XviD
    Аудио кодек: AC3
    Видео: XviD, 720x400 (16:9), 1898 kbps, 23,976 fps, 0,275 bpp
    Аудио: AC3 / 2.0 / 48 kHz / 192 kbps / 16 bit


    Код:

    General
    Complete name                            : D:\Торенты\M0Ya.deBushKa.30mbi.2015.L2.HDRip.1400Mb.avi
    Format                                   : AVI
    Format/Info                              : Audio Video Interleave
    File size                                : 1.37 GiB
    Duration                                 : 1h 29mn
    Overall bit rate                         : 2 186 Kbps
    Writing application                      : VirtualDubMod 1.5.10.2 (build 2540/release)
    Writing library                          : VirtualDubMod build 2540/release

    Video
    ID                                       : 0
    Format                                   : MPEG-4 Visual
    Format profile                           : Advanced Simple@L5
    Format settings, BVOP                    : 2
    Format settings, QPel                    : No
    Format settings, GMC                     : No warppoints
    Format settings, Matrix                  : Default (MPEG)
    Codec ID                                 : XVID
    Codec ID/Hint                            : XviD
    Duration                                 : 1h 29mn
    Bit rate                                 : 1 899 Kbps
    Width                                    : 720 pixels
    Height                                   : 400 pixels
    Display aspect ratio                     : 16:9
    Frame rate                               : 23.976 fps
    Color space                              : YUV
    Chroma subsampling                       : 4:2:0
    Bit depth                                : 8 bits
    Scan type                                : Progressive
    Compression mode                         : Lossy
    Bits/(Pixel*Frame)                       : 0.275
    Stream size                              : 1.19 GiB (87%)
    Writing library                          : XviD 1.2.1 (UTC 2008-12-04)

    Audio
    ID                                       : 1
    Format                                   : AC-3
    Format/Info                              : Audio Coding 3
    Mode extension                           : CM (complete main)
    Codec ID                                 : 2000
    Duration                                 : 1h 29mn
    Bit rate mode                            : Constant
    Bit rate                                 : 192 Kbps
    Channel(s)                               : 2 channels
    Channel positions                        : Front: L R
    Sampling rate                            : 48.0 KHz
    Bit depth                                : 16 bits
    Compression mode                         : Lossy
    Stream size                              : 123 MiB (9%)
    Alignment                                : Split accross interleaves

    Скриншоты:


    © Оформление by Ворон
    piratbit.pw



  • Скачать Моя девушка – зомби через торрент https://pic1.kartinco.top/images/61/stazu.jpg Скачать фильм Моя девушка – зомби через торрент бесплантно в хорошем качестве Описание: Фильм рассказывает о Максе и Эвелин, отношения которых сильно портятся после того, как они начинают жить вместе. Макс ... 9.7 10 3
    Торрент: Зарегистрирован [2015-07-12 08:03] · скачан: 120 раз
    Статус: T временная
    Размер: 1.37 GB
    Как cкачать? Как скачать Моя девушка – зомби через торрент | UTorrent

    % Раздел Тема Автор DL S | L
    T Фильмы 2014 (Звук TS, Cam, VO, DVO) [ 1.46 GB ] Моя девушка – зомби / Burying the Ex [2014 BDRip Любительский [ColdFilm] Twi7ter Скачать
    1 | 0
    T Фильмы [HD 720p, 1080p] (Звук Cam, VO, DVO) [ 4.49 GB ] Моя девушка – зомби / Burying the Ex [2014 BDRip 720p Любительский [ColdFilm] Ворон Скачать
    1 | 0
    T Фильмы 2014 (Звук TS, Cam, VO, DVO) [ 1.15 GB ] Моя девушка – зомби / Burying the Ex [2014 DVDRip Любительский [ColdFilm] Ворон Скачать
    1 | 0

    28-11-2019 20:33  

    Отключить всю рекламу на сайте

    16-07-2015 16:46 Моя девушка – зомби Скачать торрент  

    Уж не ушлепок ли Венцеслав тут в главной роли? ))piratbit.pw



      Дорогой пользователь! Огромная просьба, поблагодарите релизера, оцените раздачу и оставьте свои комментарий, если Вы скачали Моя девушка – зомби через торрент бесплатно! Внесите свою лепту в развитие PiratBit!
      Комментировать посты могут только пользователи прошедшие не сложную регистрацию
      Показать сообщения:    

      Моя девушка – зомби через торрент
      Скачать бесплатно Моя девушка – зомби
      Моя девушка – зомби скачать торрент
      Моя девушка – зомби смотреть онлайн
      Cкачать фильм Моя девушка – зомби бесплатно
      Моя девушка – зомби скачать торрент в хорошем качестве
      Моя девушка – зомби смотреть онлайн бесплатно в хорошем качестве


      Вы не можете начинать темы
      Вы не можете отвечать на сообщения
      Вы не можете редактировать свои сообщения
      Вы не можете удалять свои сообщения
      Вы не можете голосовать в опросах
      Вы не можете прикреплять файлы к сообщениям
      Вы можете скачивать файлы