1 сезон

1 сезон

iTunes

1

КиноПоиск HD

Кинопоиск HD

iTunes

13

1 сезон

RePack

30

Новинка

ВАЖНО

ИГРА 18+

pack

RePack

MK11
pack

Легкие деньги

RePack

jed

RePack

fifa19

RePack

RDR2

RePack

NEED FOR SPEED™ PAYBACK

4 сезон

9 сезон

Бесстыжие 9 сезон

Все сериалы

все сериалы на PB.wtf

RePack

FAR CRY 5
  
Magnet ссылка

Крепись! (Этан Коэн / Etan Cohen) [2015, США, комедия, криминал, BDRip 1080p, Авторский (одноголосый)| UNRATED / Яроцкий] piratbit.pw

Крепись! через торрент piratbit.pw

Размер: 14.08 GB | Добавлен: 5 лет 9 мес. назад | Торрент скачан:49 раз
Скачать  

10-07-2015 18:48 Крепись! Скачать торрент  


Крепись! / Get Hard



ИНФОРМАЦИЯ:
Год выпуска:2015
Страна: США
Жанр: комедия, криминал
Продолжительность: 01:46:43
Перевод: Авторский (одноголосый)
Субтитры: английские,
Режиссер: Этан Коэн / Etan Cohen

В Ролях:


Уилл Феррелл (James), Кевин Харт (Darnell), Крэйг Т. Нельсон (Martin), Элисон Бри (Alissa), Эдвина Финдли (Rita), Ариана Нил (Makayla), Эрик Чаварриа (Cecelio), Ти-Ай (Russell), Пол Бен-Виктор (Gayle), Джон Майер (John Mayer), Джон Эйз (Big Mike), Нито Лариоза (Jaoa)

Описание:
Богатый менеджер инвестиционного банка осуждён за преступление, которого он не совершал, и готовится к тюрьме. А помогает ему в этом парень, который моет его машину.

  • Мировая премьера:16 марта 2015

    ТЕХ.ДАННЫЕ:
    Качество: BDRip 1080p
    Формат: MKV
    Видео кодек: AVC
    Аудио кодек: AC3, DTS
    Видео: AVC, 1920x1080 (16:9), 14855 kbps, 23,976 fps, 0,299 bpp
    Аудио №1: русский / AC3 / 5.1 / 48 kHz / 640 kbps / 16 bit || Яроцкий
    Аудио №2: русский / DTS / 5.1 / 48 kHz / 1510 kbps / 24 bit || Яроцкий
    Аудио №3: английский / DTS / 5.1 / 48 kHz / 1510 kbps / 24 bit
    Навигация по главам: есть


    Код:

    General
    Unique ID                                : 235484136576659091349690233156006437523 (0xB12898525221B2559031A370C529E293)
    Complete name                            : D:\Торенты\Get.Hard.2015.Unrated.1080p.BluRay.DTS.x264-iNK.mkv
    Format                                   : Matroska
    Format version                           : Version 2
    File size                                : 14.1 GiB
    Duration                                 : 1h 46mn
    Overall bit rate                         : 18.9 Mbps
    Movie name                               : Run.All.Night.2015.x264.D.(Line).BDRip.(720p)
    Encoded date                             : UTC 2015-07-10 17:15:06
    Writing application                      : mkvmerge v7.9.0 ('Birds') 64bit
    Writing library                          : libebml v1.3.1 + libmatroska v1.4.2

    Video
    ID                                       : 1
    Format                                   : AVC
    Format/Info                              : Advanced Video Codec
    Format profile                           : High@L4.1
    Format settings, CABAC                   : Yes
    Format settings, ReFrames                : 4 frames
    Codec ID                                 : V_MPEG4/ISO/AVC
    Duration                                 : 1h 46mn
    Bit rate                                 : 14.9 Mbps
    Width                                    : 1 920 pixels
    Height                                   : 1 080 pixels
    Display aspect ratio                     : 16:9
    Frame rate                               : 23.976 fps
    Color space                              : YUV
    Chroma subsampling                       : 4:2:0
    Bit depth                                : 8 bits
    Scan type                                : Progressive
    Bits/(Pixel*Frame)                       : 0.299
    Stream size                              : 11.1 GiB (79%)
    Writing library                          : x264 core 142 r2431+42 c69a006 tMod [8-bit@4:2:0 X86_64]
    Encoding settings                        : cabac=1 / ref=4 / deblock=1:-3:-3 / analyse=0x3:0x113 / me=umh / subme=11 / psy=1 / fade_compensate=0.00 / psy_rd=1.00:0.00 / mixed_ref=1 / me_range=32 / chroma_me=1 / trellis=2 / 8x8dct=1 / cqm=0 / deadzone=21,11 / fast_pskip=0 / chroma_qp_offset=-4 / threads=12 / lookahead_threads=2 / sliced_threads=0 / nr=0 / decimate=0 / interlaced=0 / bluray_compat=0 / constrained_intra=0 / fgo=0 / bframes=7 / b_pyramid=2 / b_adapt=2 / b_bias=0 / direct=3 / weightb=1 / open_gop=0 / weightp=2 / keyint=250 / keyint_min=23 / scenecut=40 / intra_refresh=0 / rc_lookahead=60 / rc=crf / mbtree=0 / crf=19.0000 / qcomp=0.75 / qpmin=0:0:0 / qpmax=69:69:69 / qpstep=4 / vbv_maxrate=62500 / vbv_bufsize=78125 / crf_max=0.0 / nal_hrd=none / filler=0 / ip_ratio=1.30 / pb_ratio=1.30 / aq=4:0.85 / aq-sensitivity=10.00 / aq-factor=1.00:1.00:1.00 / aq2=0 / aq3=0
    Language                                 : English
    Default                                  : Yes
    Forced                                   : No

    Audio #1
    ID                                       : 2
    Format                                   : AC-3
    Format/Info                              : Audio Coding 3
    Mode extension                           : CM (complete main)
    Codec ID                                 : A_AC3
    Duration                                 : 1h 46mn
    Bit rate mode                            : Constant
    Bit rate                                 : 640 Kbps
    Channel(s)                               : 6 channels
    Channel positions                        : Front: L C R, Side: L R, LFE
    Sampling rate                            : 48.0 KHz
    Bit depth                                : 16 bits
    Compression mode                         : Lossy
    Stream size                              : 489 MiB (3%)
    Language                                 : Russian
    Default                                  : Yes
    Forced                                   : No

    Audio #2
    ID                                       : 3
    Format                                   : DTS
    Format/Info                              : Digital Theater Systems
    Codec ID                                 : A_DTS
    Duration                                 : 1h 46mn
    Bit rate mode                            : Constant
    Bit rate                                 : 1 510 Kbps
    Channel(s)                               : 6 channels
    Channel positions                        : Front: L C R, Side: L R, LFE
    Sampling rate                            : 48.0 KHz
    Bit depth                                : 24 bits
    Compression mode                         : Lossy
    Stream size                              : 1.13 GiB (8%)
    Language                                 : Russian
    Default                                  : No
    Forced                                   : No

    Audio #3
    ID                                       : 4
    Format                                   : DTS
    Format/Info                              : Digital Theater Systems
    Codec ID                                 : A_DTS
    Duration                                 : 1h 46mn
    Bit rate mode                            : Constant
    Bit rate                                 : 1 510 Kbps
    Channel(s)                               : 6 channels
    Channel positions                        : Front: L C R, Side: L R, LFE
    Sampling rate                            : 48.0 KHz
    Bit depth                                : 24 bits
    Compression mode                         : Lossy
    Stream size                              : 1.13 GiB (8%)
    Language                                 : English
    Default                                  : No
    Forced                                   : No

    Text
    ID                                       : 5
    Format                                   : UTF-8
    Codec ID                                 : S_TEXT/UTF8
    Codec ID/Info                            : UTF-8 Plain Text
    Language                                 : English
    Default                                  : No
    Forced                                   : No

    Menu
    00:00:00.000                             : en:00:00:00.000
    00:12:29.958                             : en:00:12:29.958
    00:23:07.803                             : en:00:23:07.803
    00:31:47.948                             : en:00:31:47.948
    00:44:17.238                             : en:00:44:17.238
    00:56:15.747                             : en:00:56:15.747
    01:05:28.675                             : en:01:05:28.675
    01:15:21.225                             : en:01:15:21.225
    01:24:56.967                             : en:01:24:56.967
    01:37:24.880                             : en:01:37:24.880
    01:42:53.584                             : en:01:42:53.584

    Скриншоты:


    © Оформление by Ворон
    piratbit.pw
    !Ворон писал(а):

    Сэмпл с бюджетного рипа Крепись!



  • Скачать Крепись! через торрент https://pic.kartinco.top/images/6/stazu.jpg Скачать фильм Крепись! через торрент бесплантно в хорошем качестве Описание: Богатый менеджер инвестиционного банка осуждён за преступление, которого он не совершал, и готовится к тюрьме. А помогает ему в ... 10 10 6
    Торрент: Зарегистрирован [2015-07-10 18:48] · скачан: 49 раз
    Статус: √ проверено
    Размер: 14.08 GB
    Как cкачать? Как скачать Крепись! через торрент | UTorrent

    % Раздел Тема Автор DL S | L
    Фильмы с авторской озвучкой [ 1.45 GB ] Крепись! [2015 HDRip Авторский / UNRATED / Яроцкий] Ворон Скачать
    1 | 0

    28-11-2019 20:33  

    Отключить всю рекламу на сайте

    18-07-2015 16:43 Крепись! Скачать торрент  

    трейлер вроде дублированый значит должент выйти и в дубляжеpiratbit.pw



    18-07-2015 17:23 Крепись! Скачать торрент  

    клюв, Нет дубляжа и не будет. Лицензия многоголоска, ищите на сайте по поиску.piratbit.pw



      Дорогой пользователь! Огромная просьба, поблагодарите релизера, оцените раздачу и оставьте свои комментарий, если Вы скачали Крепись! через торрент бесплатно! Внесите свою лепту в развитие PiratBit!
      Комментировать посты могут только пользователи прошедшие не сложную регистрацию
      Показать сообщения:    

      Крепись! через торрент
      Скачать бесплатно Крепись!
      Крепись! скачать торрент
      Крепись! смотреть онлайн
      Cкачать фильм Крепись! бесплатно
      Крепись! скачать торрент в хорошем качестве
      Крепись! смотреть онлайн бесплатно в хорошем качестве


      Вы не можете начинать темы
      Вы не можете отвечать на сообщения
      Вы не можете редактировать свои сообщения
      Вы не можете удалять свои сообщения
      Вы не можете голосовать в опросах
      Вы не можете прикреплять файлы к сообщениям
      Вы можете скачивать файлы