Marvel's Avengers Deluxe Edition (супер цена) 159р. Внимание количество ограничено!!!

2 сезон

iTunes

iTunes

1

iTunes

iTunes

iTunes

WEBRip

iTunes

30
pack

Новость дня

ВАЖНО

!!Акция!!

Alien_RageХит недели

RePack

Horizon Zero Dawn

ИГРА 18+

pack

RePack

jed

!!Акция!!

Alien_Rage

RePack

fifa19

RePack

Assassins Creed: Odyssey

RePack

NEED FOR SPEED™ PAYBACK

4 сезон

9 сезон

Бесстыжие 9 сезон

Все сериалы

все сериалы на PB.wtf

RePack

FAR CRY 5
  

Батальонъ (Дмитрий Месхиев) [2015, Россия, драма, военный, история, WEB-DL 720p) [Лицензия / iTunes] piratbit.pw

Батальонъ через торрент piratbit.pw

Размер: 3.87 GB | Добавлен: 5 лет 2 мес. назад | Торрент скачан:580 раз
Скачать  

10-07-2015 02:04 Батальонъ Скачать торрент  

Батальонъ
«Первый. Женский. Бессмертный»

  • Год выпуска: 2015
  • Страна: Россия
  • Жанр: драма, военный, история
  • Продолжительность: 02:03:45
  • Перевод: [Лицензия / iTunes]

  • Режиссер: Дмитрий Месхиев
  • В ролях:

    Мария Аронова (Мария Бочкарева, командир «Батальона смерти»), Мария Кожевникова (Татищева), Ирина Рахманова (Фроська), Марат Башаров (Александр Керенский), Янина Малинчик (Дуся), Евгений Дятлов (Цепляев), Алёна Кучкова (Надя), Валерия Шкирандо (Вера), Николай Аузин (поручик Селезнев), Владимир Зайцев (Брусилов), Мила Макарова (Тоня), Мария Антонова (Дюймовочка)

  • Описание:
    Весна 1917-го года. Февральская революция изменила жизнь России и ход Великой войны. Государь уже отрёкся от престола. В окопах, где противостояние с немцами длится уже не один год, вовсю ведут свою пропаганду большевики. Они призывают к миру с неприятелем. Российское офицерство фактически ничего не может решить без одобрения так называемых солдатских комитетов. Армия находится на пороге окончательного разложения.
    По приказу Временного правительства для поднятия боевого духа создаётся женский «Батальон смерти» под командованием георгиевского кавалера Марии Бочкарёвой. Своей службой «Батальон смерти» подаёт пример храбрости, мужества и спокойствия, поднимает дух солдат и доказывает, что каждая из этих женщин-героев достойна звания воина русской армии.
  • Рейтинг:



  • Качество: WEB-DL 720p
  • Формат: :MKV
  • Видео кодек: AVC
  • Аудио кодек: AC3
  • Видео: 960x532 (2.40:1), 4004 kbps, 25 fps, 0,314 bpp
  • Аудио: русский / 5.1 / 48 kHz / 384 kbps / 16 bit |[Лицензия / iTunes]|
  • Релиз от: GEKADOL

    Код:

    General
    Unique ID                                : 183036508641667983617386776763587599067 (0x89B38C9E5436775794895B857C679ADB)
    Complete name                            : F:\baTaL10H.2015.O.WEB-DL.720p.mkv
    Format                                   : Matroska
    Format version                           : Version 4 / Version 2
    File size                                : 3.87 GiB
    Duration                                 : 2h 3mn
    Overall bit rate                         : 4 478 Kbps
    Encoded date                             : UTC 2015-07-09 21:04:21
    Writing application                      : mkvmerge v6.5.0 ('Isn't she lovely') built on Oct 20 2013 12:50:05
    Writing library                          : libebml v1.3.0 + libmatroska v1.4.1

    Video
    ID                                       : 1
    Format                                   : AVC
    Format/Info                              : Advanced Video Codec
    Format profile                           : Main@L3.1
    Format settings, CABAC                   : No
    Format settings, ReFrames                : 2 frames
    Codec ID                                 : V_MPEG4/ISO/AVC
    Duration                                 : 2h 3mn
    Bit rate                                 : 4 004 Kbps
    Width                                    : 960 pixels
    Height                                   : 532 pixels
    Display aspect ratio                     : 2.40:1
    Frame rate                               : 25.000 fps
    Color space                              : YUV
    Chroma subsampling                       : 4:2:0
    Bit depth                                : 8 bits
    Scan type                                : Progressive
    Bits/(Pixel*Frame)                       : 0.314
    Stream size                              : 3.46 GiB (89%)
    Language                                 : Russian
    Default                                  : Yes
    Forced                                   : No
    Color primaries                          : BT.709-5, BT.1361, IEC 61966-2-4, SMPTE RP177
    Transfer characteristics                 : BT.709-5, BT.1361
    Matrix coefficients                      : BT.709-5, BT.1361, IEC 61966-2-4 709, SMPTE RP177

    Audio
    ID                                       : 2
    Format                                   : AC-3
    Format/Info                              : Audio Coding 3
    Mode extension                           : CM (complete main)
    Codec ID                                 : A_AC3
    Duration                                 : 2h 3mn
    Bit rate mode                            : Constant
    Bit rate                                 : 384 Kbps
    Channel(s)                               : 6 channels
    Channel positions                        : Front: L C R, Side: L R, LFE
    Sampling rate                            : 48.0 KHz
    Bit depth                                : 16 bits
    Compression mode                         : Lossy
    Stream size                              : 340 MiB (9%)
    Language                                 : Russian
    Default                                  : Yes
    Forced                                   : No

    Menu
    00:00:00.000                             : en:Глава 1
    00:07:52.000                             : en:Глава 2
    00:11:50.000                             : en:Глава 3
    00:17:16.000                             : en:Глава 4
    00:20:48.000                             : en:Глава 5
    00:24:37.000                             : en:Глава 6
    00:29:32.000                             : en:Глава 7
    00:36:08.000                             : en:Глава 8
    00:41:19.000                             : en:Глава 9
    00:46:39.000                             : en:Глава 10
    00:53:45.000                             : en:Глава 11
    01:02:01.000                             : en:Глава 12
    01:09:03.000                             : en:Глава 13
    01:17:57.000                             : en:Глава 14
    01:26:23.000                             : en:Глава 15
    01:34:31.000                             : en:Глава 16
    01:39:20.000                             : en:Глава 17
    01:44:13.000                             : en:Глава 18
    01:48:33.000                             : en:Глава 19
    01:52:00.000                             : en:Глава 20




    Скриншоты:

    скриншот  


    piratbit.pw



  • Скачать Батальонъ через торрент http://pic1.kartinco.top/images/10/3ytb2.jpg Скачать фильм Батальонъ через торрент бесплантно в хорошем качестве Описание: Весна 1917-го года. Февральская революция изменила жизнь России и ход Великой войны. Государь уже отрёкся от престола. В окопах, ... 8.3 10 11
    Info! Золотая раздача, скачанное не засчитывается.
    Торрент: Зарегистрирован [2015-07-10 02:04] · скачан: 580 раз
    Статус: √ проверено
    Размер: 3.87 GB
    Как cкачать? Как скачать Батальонъ через торрент | qTorrent

    % Раздел Тема Автор DL S | L
    Наши фильмы (Blu-ray, BD-Remux, HDDVD) [ 19.96 GB ] Батальонъ [2015 военный исторический BD-Remux Оригинал ] Бумер Скачать
    1 | 0
    Наши сериалы [ 2.43 GB ] Батальонъ / Серии: 1-4 из 4 [2014 военный фильм исторический фильм SATRip-AVC] aleksan55 Скачать
    1 | 0
    Наши фильмы (DVD фильмы) [ 6.7 GB ] Батальонъ [2015 военный история DVD9] R5 voovaz Скачать
    1 | 0
    Наши новые фильмы 2015 [ 2.18 GB ] Батальонъ [2015 военный история WEB-DLRip-AVC ] Ворон Скачать
    1 | 0
    Наши фильмы (HD, WEB-DL 720p, 1080p) [ 4.37 GB ] Батальонъ [2014 военный история BDRip 720p] [] potroks Скачать
    1 | 0
    Наши новые фильмы 2014 [ 1.46 GB ] Батальонъ [2014 военный история BDRip-AVC] [] potroks Скачать
    2 | 0
    Наши новые фильмы 2015 [ 1.46 GB ] Батальонъ [2015 военный исторический BDRip Оригинал ] Twi7ter Скачать
    1 | 0

    28-11-2019 20:33  

    Отключить всю рекламу на сайте

    11-07-2015 10:22 Батальонъ Скачать торрент  

    наконец то ..., спасибо.piratbit.pw



    11-07-2015 18:24 Батальонъ Скачать торрент  

    фильм вполне достойный, рекомендую! Мне понравился!piratbit.pw



      Дорогой пользователь! Огромная просьба, поблагодарите релизера, оцените раздачу и оставьте свои комментарий, если Вы скачали Батальонъ через торрент бесплатно! Внесите свою лепту в развитие PiratBit!
      Комментировать посты могут только пользователи прошедшие не сложную регистрацию
      Показать сообщения:    

      Батальонъ через торрент
      Скачать бесплатно Батальонъ
      Батальонъ скачать торрент
      Батальонъ смотреть онлайн
      Cкачать фильм Батальонъ бесплатно
      Батальонъ скачать торрент в хорошем качестве
      Батальонъ смотреть онлайн бесплатно в хорошем качестве


      Вы не можете начинать темы
      Вы не можете отвечать на сообщения
      Вы не можете редактировать свои сообщения
      Вы не можете удалять свои сообщения
      Вы не можете голосовать в опросах
      Вы не можете прикреплять файлы к сообщениям
      Вы можете скачивать файлы