Ссылка на приватное зеркало нашего сайта всего за 1$. Внимание количество ограничено!!!

2 сезон

iTunes

1 сезон

1

iTunes

iTunes

iTunes

1 сезон

RePack

30

ИГРА 18+

pack

ВАЖНО

!!Акция!!

Alien_RageХит недели

RePack

MK11
pack

Забери бонус

RePack

jed

!!Акция!!

Alien_Rage

RePack

fifa19

RePack

Assassins Creed: Odyssey

RePack

NEED FOR SPEED™ PAYBACK

4 сезон

9 сезон

Бесстыжие 9 сезон

Все сериалы

все сериалы на PB.wtf

RePack

FAR CRY 5
  

Да и да (Валерия Гай Германика ) [2014, драма, WEB-DLRip, ] Лицензия piratbit.pw

Да и да через торрент piratbit.pw

Размер: 1.46 GB | Добавлен: 5 лет 3 мес. назад | Торрент скачан:353 раза
Скачать  

09-07-2015 20:10 Да и да Скачать торрент  

Да и да

Год выпуска: 2014
Страна: Россия
Жанр: драма
Продолжительность: 01:57:25
Перевод: Не требуется
Режиссер: Валерия Гай Германика
В ролях: Агния Кузнецова, Александр Виноградов, Владимир Дубосарский, Александр Горчилин (Антонин), Оксана Земляникова, Юрий Трубин (Вадим), Лариса Баранова (подруга Агнии), Николай Шептулин
Описание:
Паренек - начинающий современный художник, девушка - начинающая школьная учительница. Случайное сближение кладет начало горячей и короткой любви. Некрасивая случайность заставляет расстаться. Но однажды увидев мир глазами любимого, учительница вернулась в свой прежний мир художницей, и не может избавиться от нового зрения, от дара живописца: непрошеной памяти о несложившейся любви.
Рейтинг:

Качество: WEB-DLRip
Формат: AVI
Видео кодек: XviD
Аудио кодек: AC3
Видео: XviD, 720x384 (1.875), 1317 kbps, 24 fps, 0,199 bpp
Аудио: AC3 / 5.1 / 48 kHz / 384 kbps / 16 bit

Код:

General
Complete name                            : D:\Торенты\Da.i.da.2014.RU.WEB-DLRip.avi
Format                                   : AVI
Format/Info                              : Audio Video Interleave
File size                                : 1.46 GiB
Duration                                 : 1h 57mn
Overall bit rate                         : 1 781 Kbps
Writing application                      : VirtualDubMod 1.5.10.3 | www.virtualdub-fr.org || (build 2550/release)
Writing library                          : VirtualDubMod build 2550/release

Video
ID                                       : 0
Format                                   : MPEG-4 Visual
Format profile                           : Advanced Simple@L5
Format settings, BVOP                    : 2
Format settings, QPel                    : No
Format settings, GMC                     : No warppoints
Format settings, Matrix                  : Default (MPEG)
Codec ID                                 : XVID
Codec ID/Hint                            : XviD
Duration                                 : 1h 57mn
Bit rate                                 : 1 318 Kbps
Width                                    : 720 pixels
Height                                   : 384 pixels
Display aspect ratio                     : 1.875
Frame rate                               : 24.000 fps
Color space                              : YUV
Chroma subsampling                       : 4:2:0
Bit depth                                : 8 bits
Scan type                                : Progressive
Compression mode                         : Lossy
Bits/(Pixel*Frame)                       : 0.199
Stream size                              : 1.08 GiB (74%)
Writing library                          : XviD 1.2.1 (UTC 2008-12-04)

Audio
ID                                       : 1
Format                                   : AC-3
Format/Info                              : Audio Coding 3
Mode extension                           : CM (complete main)
Codec ID                                 : 2000
Duration                                 : 1h 57mn
Bit rate mode                            : Constant
Bit rate                                 : 384 Kbps
Channel(s)                               : 6 channels
Channel positions                        : Front: L C R, Side: L R, LFE
Sampling rate                            : 48.0 KHz
Bit depth                                : 16 bits
Compression mode                         : Lossy
Stream size                              : 323 MiB (22%)
Alignment                                : Split accross interleaves

piratbit.pw



Скачать Да и да через торрент http://i2.imageban.ru/out/2015/07/09/cc895322949644f5ecf289fcf8f95fe2.jpg Скачать фильм Да и да через торрент бесплантно в хорошем качестве Описание: Паренек - начинающий современный художник, девушка - начинающая школьная учительница. Случайное сближение кладет начало горячей и ... 10 10 18
Торрент: Зарегистрирован [2015-07-09 20:10] · скачан: 353 раз
Статус: √ проверено
Размер: 1.46 GB
Как cкачать? Как скачать Да и да через торрент | qTorrent

% Раздел Тема Автор DL S | L
Фильмы (HD 720p, 1080p) (48-60 fps) [ 5.28 GB ] Хроники Нарнии: Лев колдунья и волшебный шкаф / The Chronicles of Narnia: The Lion [2005 BDRip - HEVC 1080p 10 bit 60 FPS] - [] dd2d3 Скачать
1 | 2
Фильмы 2018 [DVDrip, WEB-DLRip, HDrip] (DUB, MVO) [ 2.13 GB ] 100 вещей и ничего лишнего / 100 Dinge [2018 BDRip] - Twi7ter Скачать
60 | 0
Фильмы 2018 [DVDrip, WEB-DLRip, HDrip] (DUB, MVO) [ 1.41 GB ] 100 вещей и ничего лишнего / 100 Dinge [2018 BDRip] - Twi7ter Скачать
18 | 0
3D Фильмы [ 22.86 GB ] Гарри Поттер и Дары смерти: Часть II / Harry Potter and the Deathly Hallows: Part 2 [2011 BDRip ] serega768 Скачать
1 | 0
Иностранные мультфильмы [ 1.42 GB ] Пчёлка Майя и Кубок мёда / Maya the Bee: The Honey Games [2018 мультфильм BDRip] - Twi7ter Скачать
1 | 0
Фильмы [HD 720p, 1080p] (Хороший звук DUB, MVO) [ 5.38 GB ] Такой же предатель как и мы / Our Kind of Traitor [2016 BDRip 720p] MVO bober100 Скачать
1 | 0
Фильмы [HD 720p, 1080p] (Хороший звук DUB, MVO) [ 14.01 GB ] Такой же предатель как и мы / Our Kind of Traitor [2016 BDRip 1080p] MVO bober100 Скачать
1 | 0

28-11-2019 20:33  

Отключить всю рекламу на сайте

15-02-2017 16:00 Да и да Скачать торрент  

фильм переозвучен,без не нормативной лексики,нить сюжета потеряна,поэтому смотреть не стоит.piratbit.pw



    Дорогой пользователь! Огромная просьба, поблагодарите релизера, оцените раздачу и оставьте свои комментарий, если Вы скачали Да и да через торрент бесплатно! Внесите свою лепту в развитие PiratBit!
    Комментировать посты могут только пользователи прошедшие не сложную регистрацию
    Показать сообщения:    

    Да и да через торрент
    Скачать бесплатно Да и да
    Да и да скачать торрент
    Да и да смотреть онлайн
    Cкачать фильм Да и да бесплатно
    Да и да скачать торрент в хорошем качестве
    Да и да смотреть онлайн бесплатно в хорошем качестве


    Вы не можете начинать темы
    Вы не можете отвечать на сообщения
    Вы не можете редактировать свои сообщения
    Вы не можете удалять свои сообщения
    Вы не можете голосовать в опросах
    Вы не можете прикреплять файлы к сообщениям
    Вы можете скачивать файлы