1 сезон

3 сезон

iTunes

1

iTunes

DUB Netflix

iTunes

13

1 сезон

RePack

30

Deluxe

pack

Легкие деньги

ВАЖНО

ИГРА 18+

pack

RePack

MK11

RePack

jed

RePack

fifa19

RePack

RDR2

RePack

NEED FOR SPEED™ PAYBACK

4 сезон

9 сезон

Бесстыжие 9 сезон

Все сериалы

все сериалы на PB.wtf

RePack

FAR CRY 5

Anonymous, доброе утро, мы не успеваем до 1 числа собрать деньги на оплату серверов, помогите нам пожалуйста в это трудное время. В качестве благодарности мы отключим Вам всю рекламу на сайте (укажите свой ник в строку Ваше имя)!

×
  
Magnet ссылка

Зверство на голубом экране / Wild in Blue (Мэттью Берковитц / Matthew Berkowitz) [2014, США, триллер, мелодрама, HDRip, Любительский (одноголосый) [datynet] piratbit.pw

Зверство на голубом экране через торрент piratbit.pw

Размер: 1.39 GB | Добавлен: 5 лет 11 мес. назад | Торрент скачан:70 раз
Скачать  

08-07-2015 12:59 Зверство на голубом экране Скачать торрент  

Зверство на голубом экране / Wild in Blue


  • Год выпуска: 2014
  • Страна: США
  • Жанр: триллер, мелодрама
  • Продолжительность: 01:25:28
  • Перевод: Любительский (одноголосый)[datynet]

  • Режиссер: Мэттью Берковитц / Matthew Berkowitz
  • В ролях:

    Фрэнк Сермак мл. (Charlie), Шарлотта Эллен Прайс (Ashley), Стив Рейлсбэк (Charlie's Father), Карен Блэк (Justine), Дэйви Чейз (Rachel), Маркос Матео Очоа (Ben), Андреа Лоуелл (Hooker #1), Оуэн Тиг (Young Charlie), Кэролайн Митчелл (Hooker #2), Эйдан Люк Фридберг (Baby Charlie), Azeen Kazemi (Nitro the Stripper), Розмари Хохшилд (Charlie's Mom)

  • Описание:
    Во время съемок фильма садистские отношения режиссёра к женщинам, как развлечение убийцы с потенциальной жертвой заставляют его глубоко задуматься над своей жизнью.
  • Рейтинг:



  • Качество: HDRip
  • Формат: :AVI
  • Видео кодек: XviD
  • Аудио кодек: AC3
  • Видео: 720x384 (1.875), 1773 kbps, 23,976 fps, 0,268 bpp
  • Аудио: 5.1 / 48 kHz / 448 kbps / 16 bit
  • Релиз от: GEKADOL

    Код:

    General
    Complete name                            : F:\Wild.in.Blue.2014.L1.HDRip.1400Mb.avi
    Format                                   : AVI
    Format/Info                              : Audio Video Interleave
    File size                                : 1.39 GiB
    Duration                                 : 1h 25mn
    Overall bit rate                         : 2 323 Kbps
    Writing application                      : VirtualDubMod 1.5.10.2 (build 2540/release)
    Writing library                          : VirtualDubMod build 2540/release

    Video
    ID                                       : 0
    Format                                   : MPEG-4 Visual
    Format profile                           : Advanced Simple@L5
    Format settings, BVOP                    : 2
    Format settings, QPel                    : No
    Format settings, GMC                     : No warppoints
    Format settings, Matrix                  : Default (H.263)
    Muxing mode                              : Packed bitstream
    Codec ID                                 : XVID
    Codec ID/Hint                            : XviD
    Duration                                 : 1h 25mn
    Bit rate                                 : 1 774 Kbps
    Width                                    : 720 pixels
    Height                                   : 384 pixels
    Display aspect ratio                     : 1.875
    Frame rate                               : 23.976 fps
    Color space                              : YUV
    Chroma subsampling                       : 4:2:0
    Bit depth                                : 8 bits
    Scan type                                : Progressive
    Compression mode                         : Lossy
    Bits/(Pixel*Frame)                       : 0.268
    Stream size                              : 1.06 GiB (76%)
    Writing library                          : XviD 66

    Audio
    ID                                       : 1
    Format                                   : AC-3
    Format/Info                              : Audio Coding 3
    Mode extension                           : CM (complete main)
    Codec ID                                 : 2000
    Duration                                 : 1h 25mn
    Bit rate mode                            : Constant
    Bit rate                                 : 448 Kbps
    Channel(s)                               : 6 channels
    Channel positions                        : Front: L C R, Side: L R, LFE
    Sampling rate                            : 48.0 KHz
    Bit depth                                : 16 bits
    Compression mode                         : Lossy
    Stream size                              : 274 MiB (19%)
    Alignment                                : Split accross interleaves




    Скриншоты:
    скриншот   скриншот   скриншот   скриншот   скриншот  
    скриншот  


    piratbit.pw



  • Скачать Зверство на голубом экране через торрент http://i1.imageban.ru/out/2015/07/08/369088f0c2139cb260af3ccc8befabfb.jpg Скачать фильм Зверство на голубом экране через торрент бесплантно в хорошем качестве Описание: Во время съемок фильма садистские отношения режиссёра к женщинам, как развлечение убийцы с потенциальной жертвой заставляют его ... 10 10 6
    Торрент: Зарегистрирован [2015-07-08 12:59] · скачан: 70 раз
    Статус: √ проверено
    Размер: 1.39 GB
    Как cкачать? Как скачать Зверство на голубом экране через торрент | UTorrent

    % Раздел Тема Автор DL S | L
    T Фильмы (Blu-ray, BD-Remux, HDDVD) [ 18.8 GB ] Зверство на голубом экране / Wild in Blue [2014 Мело BDRemux 1080p ] VO Ворон Скачать
    1 | 0
    Фильмы [HD 720p, 1080p] (Звук Cam, VO, DVO) [ 4.63 GB ] Зверство на голубом экране / Wild in Blue [2014 BDRip 720p Любительский [datynet] + ENG GEKADOL Скачать
    1 | 0

    28-11-2019 20:33  

    Отключить всю рекламу на сайте

    08-07-2015 14:38 Зверство на голубом экране Скачать торрент  

    как кино ребят отпишитесь! стоит качать? :smok: :smok: :smok: :smok:piratbit.pw



    08-07-2015 15:31 Зверство на голубом экране Скачать торрент  

    Описание конечно удручает).Но скачаем.Посмотрим).
    Спасибо)piratbit.pw



      Дорогой пользователь! Огромная просьба, поблагодарите релизера, оцените раздачу и оставьте свои комментарий, если Вы скачали Зверство на голубом экране через торрент бесплатно! Внесите свою лепту в развитие PiratBit!
      Комментировать посты могут только пользователи прошедшие не сложную регистрацию
      Показать сообщения:    

      Зверство на голубом экране через торрент
      Скачать бесплатно Зверство на голубом экране
      Зверство на голубом экране скачать торрент
      Зверство на голубом экране смотреть онлайн
      Cкачать фильм Зверство на голубом экране бесплатно
      Зверство на голубом экране скачать торрент в хорошем качестве
      Зверство на голубом экране смотреть онлайн бесплатно в хорошем качестве


      Вы не можете начинать темы
      Вы не можете отвечать на сообщения
      Вы не можете редактировать свои сообщения
      Вы не можете удалять свои сообщения
      Вы не можете голосовать в опросах
      Вы не можете прикреплять файлы к сообщениям
      Вы можете скачивать файлы