1 сезон

3 сезон

iTunes

1

iTunes

DUB Netflix

iTunes

13

1 сезон

RePack

30

Deluxe

pack

Легкие деньги

ВАЖНО

ИГРА 18+

pack

RePack

MK11

RePack

jed

RePack

fifa19

RePack

RDR2

RePack

NEED FOR SPEED™ PAYBACK

4 сезон

9 сезон

Бесстыжие 9 сезон

Все сериалы

все сериалы на PB.wtf

RePack

FAR CRY 5

Anonymous, доброй ночи, мы не успеваем до 1 числа собрать деньги на оплату серверов, помогите нам пожалуйста в это трудное время. В качестве благодарности мы отключим Вам всю рекламу на сайте (укажите свой ник в строку Ваше имя)!

×
  
Magnet ссылка

Виплала / Wiplala (Тим Олихоек ) [2014, приключения, HDRip, Любительский (одноголосый) piratbit.pw

Виплала через торрент piratbit.pw

Размер: 1.38 GB | Добавлен: 5 лет 11 мес. назад | Торрент скачан:105 раз
Скачать  

07-07-2015 10:59 Виплала Скачать торрент  

Виплала / Wiplala

Год выпуска: 2014
Страна: Нидерланды
Жанр: приключения
Продолжительность: 04:34:23
Перевод: Любительский (одноголосый)
Режиссер: Тим Олихоек
В ролях: Питер Пол Мюллер (Mr. Blom), Геза Вайз (Wiplala), Як Воутерсе (Municipal Official), Питер Ван ден Бегин (Waiter), Кэс Джэнсен (Doctor Vink), Ганс Кестинг (Atlas), Mamoun Elyounoussi (Pizza Delivery Boy), Рене Гротхоф (Old Gentleman with dog), Морис Нэйтан Вирт (Reporter), Ferdi Stofmeel (Reporter), Pepijn Cladder (Policeman restaurant), Манушка Зегелар-Бревелд (Nurse Babs)
Описание:
Что не говори, но семью Бломов нельзя считать успешной. Ведь на плечи отца семейства после смерти супруги легла вся ответственность за двух несовершеннолетних детей. Да и должность учителя в местной школе – это не гарант финансового благополучия. Но самое главное – это то, что в этой семье никто не унывает, даже самый младший Йоханнес – самый впечатлительный и безропотный. И так уж случилось, что именно он обнаружил в своем доме на кухне маленького человечка, который очень любил арахисовое масло. И все бы ничего, но Йоханнес попросил своего гостя об одном одолжении.
Рейтинг:

Качество: HDRip
Формат: AVI
Видео кодек: XviD
Аудио кодек: MP3
Видео: XviD, 720x384 (2.40:1), 492 kbps, 24 fps, 0,074 bpp
Аудио: MP3 / 2.0 / 48 kHz / 192 kbps /

Код:

General
Complete name                            : D:\Торенты\Виплала.avi
Format                                   : AVI
Format/Info                              : Audio Video Interleave
File size                                : 1.38 GiB
Duration                                 : 4h 34mn
Overall bit rate                         : 721 Kbps
Writing application                      : Lavf55.19.104

Video
ID                                       : 0
Format                                   : MPEG-4 Visual
Format profile                           : Simple@L1
Format settings, BVOP                    : No
Format settings, QPel                    : No
Format settings, GMC                     : No warppoints
Format settings, Matrix                  : Default (H.263)
Codec ID                                 : XVID
Codec ID/Hint                            : XviD
Duration                                 : 4h 34mn
Bit rate                                 : 492 Kbps
Width                                    : 720 pixels
Height                                   : 384 pixels
Display aspect ratio                     : 2.40:1
Frame rate                               : 24.000 fps
Color space                              : YUV
Chroma subsampling                       : 4:2:0
Bit depth                                : 8 bits
Scan type                                : Progressive
Compression mode                         : Lossy
Bits/(Pixel*Frame)                       : 0.074
Stream size                              : 966 MiB (68%)
Writing library                          : Lavc55.39.100

Audio
ID                                       : 1
Format                                   : MPEG Audio
Format version                           : Version 1
Format profile                           : Layer 3
Mode                                     : Joint stereo
Mode extension                           : MS Stereo
Codec ID                                 : 55
Codec ID/Hint                            : MP3
Duration                                 : 4h 34mn
Bit rate mode                            : Constant
Bit rate                                 : 192 Kbps
Channel(s)                               : 2 channels
Sampling rate                            : 48.0 KHz
Compression mode                         : Lossy
Stream size                              : 377 MiB (27%)
Alignment                                : Aligned on interleaves

piratbit.pw



Скачать Виплала через торрент http://i4.imageban.ru/out/2015/07/07/87b494912d6dff3a50256bd7602831c5.jpg Скачать фильм Виплала через торрент бесплантно в хорошем качестве Описание: Что не говори, но семью Бломов нельзя считать успешной. Ведь на плечи отца семейства после смерти супруги легла вся ... 8.5 10 6
Торрент: Зарегистрирован [2015-07-07 10:59] · скачан: 105 раз
Статус: √ проверено
Размер: 1.38 GB
Как cкачать? Как скачать Виплала через торрент | UTorrent

28-11-2019 20:33  

Отключить всю рекламу на сайте

    Дорогой пользователь! Огромная просьба, поблагодарите релизера, оцените раздачу и оставьте свои комментарий, если Вы скачали Виплала через торрент бесплатно! Внесите свою лепту в развитие PiratBit!
    Комментировать посты могут только пользователи прошедшие не сложную регистрацию
    Показать сообщения:    

    Виплала через торрент
    Скачать бесплатно Виплала
    Виплала скачать торрент
    Виплала смотреть онлайн
    Cкачать фильм Виплала бесплатно
    Виплала скачать торрент в хорошем качестве
    Виплала смотреть онлайн бесплатно в хорошем качестве


    Вы не можете начинать темы
    Вы не можете отвечать на сообщения
    Вы не можете редактировать свои сообщения
    Вы не можете удалять свои сообщения
    Вы не можете голосовать в опросах
    Вы не можете прикреплять файлы к сообщениям
    Вы можете скачивать файлы