2 сезон

iTunes

1 сезон

1

iTunes

iTunes

iTunes

1 сезон

RePack

30

ИГРА 18+

pack

ВАЖНО

!!Акция!!

Alien_RageХит недели

RePack

MK11
pack

Забери бонус

RePack

jed

!!Акция!!

Alien_Rage

RePack

fifa19

RePack

Assassins Creed: Odyssey

RePack

NEED FOR SPEED™ PAYBACK

4 сезон

9 сезон

Бесстыжие 9 сезон

Все сериалы

все сериалы на PB.wtf

RePack

FAR CRY 5
  

Гена-Бетон (Роман Качанов ) [2014, комедия, криминал, WEBRip] piratbit.pw

Гена-Бетон через торрент piratbit.pw

Размер: 1.37 GB | Добавлен: 5 лет 3 мес. назад | Торрент скачан:2195 раз
Скачать  

03-07-2015 06:24 Гена-Бетон Скачать торрент  


Гена-Бетон


ИНФОРМАЦИЯ:
Год выпуска: 2014
Страна: Россия
Жанр: комедия, криминал
Продолжительность: 01:25:41
Перевод: Не требуется
Режиссер: Роман Качанов

В Ролях:


Гоша Куценко (Гена-Бетон), Сергей Перегудов (Александр Тихомиров, журналист), Ольга Арнтгольц (Маша), Алика Смехова (Ангелина), Рената Литвинова (редактор газеты «Наш криминал»), Фёдор Бондарчук (директор фирмы), Иван Охлобыстин (заместитель директора фирмы), Роман Качанов (киллер), Ангелина Чернова (продавщица), Рудольф Фурманов (главный режиссер), Андрей Васильев (главный редактор газеты «Великобельский вестник»), Артемий Троицкий (лидер партии «Любимая Россия»)

Описание:
Журналист попадает в тяжелейшую криминальную ситуацию. Кто-то бы взялся за обрез, а он берется за авторучку и виртуозно выходит из положения, попутно перевернув всю жизнь города...


ТЕХ.ДАННЫЕ:
Качество: WEBRip
Формат: AVI
Видео кодек: XviD
Аудио кодек: MP3
Видео: XviD, 720x384 (1.875), 1992 kbps, 30 fps, 0,240 bpp
Аудио: MP3 / 2.0 / 44 kHz / 192 kbps /



Код:

General
Complete name                            : D:\Торенты\geHa.beT0H.2014.O.WEBRip.1400Mb.avi
Format                                   : AVI
Format/Info                              : Audio Video Interleave
File size                                : 1.37 GiB
Duration                                 : 1h 25mn
Overall bit rate                         : 2 283 Kbps
Writing application                      : VirtualDubMod 1.5.10.2 (build 2540/release)
Writing library                          : VirtualDubMod build 2540/release

Video
ID                                       : 0
Format                                   : MPEG-4 Visual
Format profile                           : Advanced Simple@L5
Format settings, BVOP                    : 2
Format settings, QPel                    : No
Format settings, GMC                     : No warppoints
Format settings, Matrix                  : Custom
Codec ID                                 : XVID
Codec ID/Hint                            : XviD
Duration                                 : 1h 25mn
Bit rate                                 : 1 992 Kbps
Width                                    : 720 pixels
Height                                   : 384 pixels
Display aspect ratio                     : 1.875
Frame rate                               : 30.000 fps
Color space                              : YUV
Chroma subsampling                       : 4:2:0
Bit depth                                : 8 bits
Scan type                                : Progressive
Compression mode                         : Lossy
Bits/(Pixel*Frame)                       : 0.240
Stream size                              : 1.19 GiB (87%)
Writing library                          : XviD 1.2.1 (UTC 2008-12-04)

Audio
ID                                       : 1
Format                                   : MPEG Audio
Format version                           : Version 1
Format profile                           : Layer 3
Codec ID                                 : 55
Codec ID/Hint                            : MP3
Duration                                 : 1h 25mn
Bit rate mode                            : Constant
Bit rate                                 : 192 Kbps
Channel(s)                               : 2 channels
Sampling rate                            : 44.1 KHz
Compression mode                         : Lossy
Stream size                              : 118 MiB (8%)
Alignment                                : Split accross interleaves

Скриншоты:


© Оформление by Ворон
piratbit.pw



Скачать Гена-Бетон через торрент http://pic.kartinco.top/images/6/ordi9.jpg Скачать фильм Гена-Бетон через торрент бесплантно в хорошем качестве Описание: Журналист попадает в тяжелейшую криминальную ситуацию. Кто-то бы взялся за обрез, а он берется за авторучку и виртуозно выходит ... 8.8 10 39
Info! Золотая раздача, скачанное не засчитывается.
Торрент: Зарегистрирован [2015-07-03 06:24] · скачан: 2 195 раз
Статус: T временная
Размер: 1.37 GB
Как cкачать? Как скачать Гена-Бетон через торрент | qTorrent

% Раздел Тема Автор DL S | L
T Наши новые фильмы 2014 [ 701 MB ] Гена-Бетон [2014 WEBRip] Newton5 Скачать
1 | 0
T Наши фильмы (HD, WEB-DL 720p, 1080p) [ 1.25 GB ] Гена-Бетон [2014 WEB-DL 720p] Ворон Скачать
1 | 0

28-11-2019 20:33  

Отключить всю рекламу на сайте

10-07-2015 08:00 Гена-Бетон Скачать торрент  

во, наконец-то что-то сносное сняли, хоть как-то это можно смотреть, пойдёт.piratbit.pw



02-08-2015 18:55 Гена-Бетон Скачать торрент  

полная хреньpiratbit.pw



21-08-2015 18:35 Гена-Бетон Скачать торрент  

Нормальная комедия! Советую!piratbit.pw



    Дорогой пользователь! Огромная просьба, поблагодарите релизера, оцените раздачу и оставьте свои комментарий, если Вы скачали Гена-Бетон через торрент бесплатно! Внесите свою лепту в развитие PiratBit!
    Комментировать посты могут только пользователи прошедшие не сложную регистрацию
    Показать сообщения:    

    Гена-Бетон через торрент
    Скачать бесплатно Гена-Бетон
    Гена-Бетон скачать торрент
    Гена-Бетон смотреть онлайн
    Cкачать фильм Гена-Бетон бесплатно
    Гена-Бетон скачать торрент в хорошем качестве
    Гена-Бетон смотреть онлайн бесплатно в хорошем качестве


    Вы не можете начинать темы
    Вы не можете отвечать на сообщения
    Вы не можете редактировать свои сообщения
    Вы не можете удалять свои сообщения
    Вы не можете голосовать в опросах
    Вы не можете прикреплять файлы к сообщениям
    Вы можете скачивать файлы