2 сезон

iTunes

1 сезон

1

iTunes

iTunes

iTunes

1 сезон

RePack

30

ИГРА 18+

pack

ВАЖНО

!!Акция!!

Alien_RageХит недели

RePack

MK11
pack

Забери бонус

RePack

jed

!!Акция!!

Alien_Rage

RePack

fifa19

RePack

Assassins Creed: Odyssey

RePack

NEED FOR SPEED™ PAYBACK

4 сезон

9 сезон

Бесстыжие 9 сезон

Все сериалы

все сериалы на PB.wtf

RePack

FAR CRY 5
  

Тайна четырех принцесс (Олег Штром ) [2014, комедия, фэнтези, DVDRip] piratbit.pw

Тайна четырех принцесс через торрент piratbit.pw

Раздают: 1 [ 0 KB/s ]
Размер: 1.45 GB | Добавлен: 5 лет 3 мес. назад | Торрент скачан:885 раз
Скачать  

03-07-2015 04:33 Тайна четырех принцесс Скачать торрент  


Тайна четырех принцесс


ИНФОРМАЦИЯ:
Год выпуска: 2014
Страна: Россия
Жанр: комедия, фэнтези
Продолжительность: 01:26:51
Перевод: Не требуется
Режиссер: Олег Штром

В Ролях:


Кристина Орбакайте (королева Гурунда), Сергей Жигунов (король), Александр Стриженов (генерал), Юрий Гальцев (церемонемейстер), Юлия Паршута (Гретель), Дмитрий Бурукин (Ганс), Андрей Федорцов (стражник), Сергей Степанченко (стражник), Сергей Дорогов (стражник), Вадим Галыгин (советник), Барбара Брыльска (фея), Александра Попова (принцесса Труда)

Описание:
В некотором царстве, в некотором государстве жил-был весёлый и добрый портной по имени Ганс. Он был молод и не очень богат, а если точнее практически беден, и жители царства-государства звали его просто портняжка Ганс. По воле судьбы он оказывается во дворце короля, который поручает Гансу раскрыть тайну своих дочерей - молодых принцесс, которые каждую ночь куда-то исчезают. А в это время в другом царстве королева Гурунда решила женить своих принцев-сыновей на дочерях соседних сказочно богатых королей. Но беда в том, что сами сыновья уже выбрали себе невест. Отказ сыновей повиноваться вызвал у Гурунды ярость. Она в сердцах проклинает их и превращает в воронов, оставив им только несколько часов на пребывание в человеческом облике - с полночи до трех утра.

  • Мировая премьера:14 августа 2014

    ТЕХ.ДАННЫЕ:
    Качество: DVDRip
    Формат: AVI
    Видео кодек: XviD
    Аудио кодек: AC3
    Видео: XviD, 720x304 (2.35:1), 1842 kbps, 25 fps, 0,337 bpp
    Аудио: AC3 / 5.1 / 48 kHz / 448 kbps / 16 bit



    Код:

    General
    Complete name                            : D:\Торенты\TaYHa.4ox.pP1HceCC.2014.O.DVDRip.avi
    Format                                   : AVI
    Format/Info                              : Audio Video Interleave
    File size                                : 1.45 GiB
    Duration                                 : 1h 26mn
    Overall bit rate                         : 2 395 Kbps
    Movie name                               : Taina.Chetireh.Princess.2014.O.DVDRip.ELEKTRI4KA.uniongang.tv
    Director                                 : Carl Gaus
    Writing application                      : VirtualDubMod 1.5.10.3 | www.virtualdub-fr.org || (build 2550/release)
    Copyright                                : UNIONGANG&RUSTORRENTS

    Video
    ID                                       : 0
    Format                                   : MPEG-4 Visual
    Format profile                           : Advanced Simple@L5
    Format settings, BVOP                    : 3
    Format settings, QPel                    : No
    Format settings, GMC                     : No warppoints
    Format settings, Matrix                  : Custom
    Codec ID                                 : XVID
    Codec ID/Hint                            : XviD
    Duration                                 : 1h 26mn
    Bit rate                                 : 1 843 Kbps
    Width                                    : 720 pixels
    Height                                   : 304 pixels
    Display aspect ratio                     : 2.35:1
    Frame rate                               : 25.000 fps
    Color space                              : YUV
    Chroma subsampling                       : 4:2:0
    Bit depth                                : 8 bits
    Scan type                                : Progressive
    Compression mode                         : Lossy
    Bits/(Pixel*Frame)                       : 0.337
    Stream size                              : 1.12 GiB (77%)
    Writing library                          : XviD 1.2.1 (UTC 2008-12-04)

    Audio
    ID                                       : 1
    Format                                   : AC-3
    Format/Info                              : Audio Coding 3
    Mode extension                           : CM (complete main)
    Codec ID                                 : 2000
    Duration                                 : 1h 26mn
    Bit rate mode                            : Constant
    Bit rate                                 : 448 Kbps
    Channel(s)                               : 6 channels
    Channel positions                        : Front: L C R, Side: L R, LFE
    Sampling rate                            : 48.0 KHz
    Bit depth                                : 16 bits
    Compression mode                         : Lossy
    Stream size                              : 278 MiB (19%)
    Alignment                                : Split accross interleaves

    Скриншоты:


    © Оформление by Ворон
    piratbit.pw



  • Скачать Тайна четырех принцесс через торрент http://pic.kartinco.top/images/6/ordi9.jpg Скачать фильм Тайна четырех принцесс через торрент бесплантно в хорошем качестве Описание: В некотором царстве, в некотором государстве жил-был весёлый и добрый портной по имени Ганс. Он был молод и не очень богат, а ... 8.9 10 29
    Торрент: Зарегистрирован [2015-07-03 04:33] · скачан: 885 раз
    Статус: √ проверено
    Размер: 1.45 GB
    Как cкачать? Как скачать Тайна четырех принцесс через торрент | qTorrent

    % Раздел Тема Автор DL S | L
    Наши фильмы (DVD фильмы) [ 4.35 GB ] Тайна четырех принцесс [2014 DVD5] R5 voovaz Скачать
    1 | 0

    28-11-2019 20:33  

    Отключить всю рекламу на сайте

    03-07-2015 08:04 Тайна четырех принцесс Скачать торрент  

    Хорошая сказкаpiratbit.pw



    03-07-2015 08:57 Тайна четырех принцесс Скачать торрент  

    sashadushkin писал(а):

    Хорошая сказка

    ну по рейтингу, так не скажешь!piratbit.pw



    03-07-2015 09:29 Тайна четырех принцесс Скачать торрент  

    предпочту не очень хорошую сказку пр-ва России показать ребенку, чем хорошую пр-ва европи... этих, толерантных извращенцев. и вам советую, ребенок адекватнее будет. спасибо за раздачу!piratbit.pw



    05-09-2015 08:21 Тайна четырех принцесс Скачать торрент  

    Сам сюжет неплох, но всегда это НО - скучные песни под совершенно один музыкальный ритм, неужели нельзя было написать более оригинальные песни - только из-за этого моя оценка этого фильма падает на несколько порядков. Фильм на один раз, пересматривать нет совершенно никакого желания, даже маленьким детям не захочется пересматривать сиё творение.piratbit.pw



      Дорогой пользователь! Огромная просьба, поблагодарите релизера, оцените раздачу и оставьте свои комментарий, если Вы скачали Тайна четырех принцесс через торрент бесплатно! Внесите свою лепту в развитие PiratBit!
      Комментировать посты могут только пользователи прошедшие не сложную регистрацию
      Показать сообщения:    

      Тайна четырех принцесс через торрент
      Скачать бесплатно Тайна четырех принцесс
      Тайна четырех принцесс скачать торрент
      Тайна четырех принцесс смотреть онлайн
      Cкачать фильм Тайна четырех принцесс бесплатно
      Тайна четырех принцесс скачать торрент в хорошем качестве
      Тайна четырех принцесс смотреть онлайн бесплатно в хорошем качестве


      Вы не можете начинать темы
      Вы не можете отвечать на сообщения
      Вы не можете редактировать свои сообщения
      Вы не можете удалять свои сообщения
      Вы не можете голосовать в опросах
      Вы не можете прикреплять файлы к сообщениям
      Вы можете скачивать файлы