Ссылка на приватное зеркало нашего сайта всего за 1$. Внимание количество ограничено!!!

2 сезон

iTunes

iTunes

1

iTunes

iTunes

iTunes

WEBRip

iTunes

30
pack

Вам бонус

ВАЖНО

!!Акция!!

Alien_RageХит недели

RePack

Horizon Zero Dawn

ИГРА 18+

pack

RePack

jed

!!Акция!!

Alien_Rage

RePack

fifa19

RePack

Assassins Creed: Odyssey

RePack

NEED FOR SPEED™ PAYBACK

4 сезон

9 сезон

Бесстыжие 9 сезон

Все сериалы

все сериалы на PB.wtf

RePack

FAR CRY 5
  

Гена-Бетон (Роман Качанов ) [2014, комедия, криминал, WEB-DL 720p] piratbit.pw

Гена-Бетон через торрент piratbit.pw

Размер: 1.25 GB | Добавлен: 5 лет 2 мес. назад | Торрент скачан:1267 раз
Скачать  

30-06-2015 22:42 Гена-Бетон Скачать торрент  


Гена-Бетон


ИНФОРМАЦИЯ:
Год выпуска: 2014
Страна: Россия
Жанр: комедия, криминал
Продолжительность: 01:25:41
Перевод: Не требуется
Режиссер: Роман Качанов

В Ролях:


Гоша Куценко (Гена-Бетон), Сергей Перегудов (Александр Тихомиров, журналист), Ольга Арнтгольц (Маша), Алика Смехова (Ангелина), Рената Литвинова (редактор газеты «Наш криминал»), Фёдор Бондарчук (директор фирмы), Иван Охлобыстин (заместитель директора фирмы), Роман Качанов (киллер), Ангелина Чернова (продавщица), Рудольф Фурманов (главный режиссер), Андрей Васильев (главный редактор газеты «Великобельский вестник»), Артемий Троицкий (лидер партии «Любимая Россия»)

Описание:
Журналист попадает в тяжелейшую криминальную ситуацию. Кто-то бы взялся за обрез, а он берется за авторучку и виртуозно выходит из положения, попутно перевернув всю жизнь города...


ТЕХ.ДАННЫЕ:
Качество: WEB-DL 720p
Формат: MPEG-4
Видео кодек: AVC
Аудио кодек: AAC LC
Видео: AVC, 1280x720 (16:9), 1980 kbps, 30 fps, 0,072 bpp
Аудио: AAC LC / 2.0 / 44 kHz / 107 kbps /



Код:

General
Complete name                            : D:\Торенты\Гена-Бетон.mp4
Format                                   : MPEG-4
Format profile                           : Base Media
Codec ID                                 : isom
File size                                : 1.25 GiB
Duration                                 : 1h 25mn
Overall bit rate mode                    : Variable
Overall bit rate                         : 2 095 Kbps
Writing application                      : Lavf56.25.101

Video
ID                                       : 1
Format                                   : AVC
Format/Info                              : Advanced Video Codec
Format profile                           : High@L3.1
Format settings, CABAC                   : Yes
Format settings, ReFrames                : 4 frames
Codec ID                                 : avc1
Codec ID/Info                            : Advanced Video Coding
Duration                                 : 1h 25mn
Bit rate                                 : 1 980 Kbps
Width                                    : 1 280 pixels
Height                                   : 720 pixels
Display aspect ratio                     : 16:9
Frame rate mode                          : Constant
Frame rate                               : 30.000 fps
Color space                              : YUV
Chroma subsampling                       : 4:2:0
Bit depth                                : 8 bits
Scan type                                : Progressive
Bits/(Pixel*Frame)                       : 0.072
Stream size                              : 1.19 GiB (94%)
Writing library                          : x264 core 142
Encoding settings                        : cabac=1 / ref=3 / deblock=1:0:0 / analyse=0x3:0x113 / me=hex / subme=7 / psy=1 / psy_rd=1.00:0.00 / mixed_ref=1 / me_range=16 / chroma_me=1 / trellis=1 / 8x8dct=1 / cqm=0 / deadzone=21,11 / fast_pskip=1 / chroma_qp_offset=-2 / threads=4 / lookahead_threads=1 / sliced_threads=0 / nr=0 / decimate=1 / interlaced=0 / bluray_compat=0 / constrained_intra=0 / bframes=3 / b_pyramid=2 / b_adapt=1 / b_bias=0 / direct=1 / weightb=1 / open_gop=0 / weightp=2 / keyint=250 / keyint_min=25 / scenecut=40 / intra_refresh=0 / rc_lookahead=40 / rc=2pass / mbtree=1 / bitrate=1980 / ratetol=1.0 / qcomp=0.60 / qpmin=0 / qpmax=69 / qpstep=4 / cplxblur=20.0 / qblur=0.5 / ip_ratio=1.40 / aq=1:1.00

Audio
ID                                       : 2
Format                                   : AAC
Format/Info                              : Advanced Audio Codec
Format profile                           : LC
Codec ID                                 : 40
Duration                                 : 1h 25mn
Bit rate mode                            : Variable
Bit rate                                 : 107 Kbps
Maximum bit rate                         : 192 Kbps
Channel(s)                               : 2 channels
Channel positions                        : Front: L R
Sampling rate                            : 44.1 KHz
Compression mode                         : Lossy
Stream size                              : 65.8 MiB (5%)

Скриншоты:


© Оформление by Ворон
piratbit.pw



Скачать Гена-Бетон через торрент http://pic.kartinco.top/images/6/ordi9.jpg Скачать фильм Гена-Бетон через торрент бесплантно в хорошем качестве Описание: Журналист попадает в тяжелейшую криминальную ситуацию. Кто-то бы взялся за обрез, а он берется за авторучку и виртуозно выходит ... 10 10 32
Info! Золотая раздача, скачанное не засчитывается.
Торрент: Зарегистрирован [2015-06-30 22:42] · скачан: 1 267 раз
Статус: T временная
Размер: 1.25 GB
Как cкачать? Как скачать Гена-Бетон через торрент | qTorrent

% Раздел Тема Автор DL S | L
T Наши новые фильмы 2014 [ 1.37 GB ] Гена-Бетон [2014 WEBRip] Ворон Скачать
2 | 0
T Наши новые фильмы 2014 [ 701 MB ] Гена-Бетон [2014 WEBRip] Newton5 Скачать
1 | 0

28-11-2019 20:33  

Отключить всю рекламу на сайте

01-07-2015 02:33 Гена-Бетон Скачать торрент  

Гена?Бетон?аааа КуБоОх...возможно шедевр..piratbit.pw



01-07-2015 03:02 Гена-Бетон Скачать торрент  

Да уж Гоша - Гена, будет жара, Куценко надеюсь выдаст весь свой талант. :threaten:

kpuctaluk писал(а):

Гена?Бетон?аааа КуБоОх...возможно шедевр..

Подпись зачет)), я то думал во что верить
Не сразу заметил, там же еще Бондарчук :shoot2:piratbit.pw



01-07-2015 03:42 Гена-Бетон Скачать торрент  

посмотрел а ведь смешно sarcastic и все сдесь.скриншот  -черная дыра sarcastic снято в стиле дмб и по классике(ревизор)piratbit.pw



01-07-2015 07:11 Гена-Бетон Скачать торрент  

Вполне сносный фильм, спасибо.piratbit.pw



01-07-2015 11:03 Гена-Бетон Скачать торрент  

ЭТО вообще смотреть можно?piratbit.pw



01-07-2015 12:32 Гена-Бетон Скачать торрент  

edapush писал(а):

ЭТО вообще смотреть можно?

нужно)))piratbit.pw



01-07-2015 12:33 Гена-Бетон Скачать торрент  

xIcyBladex писал(а):

edapush писал(а):

ЭТО вообще смотреть можно?

нужно)))лучшеб назвали железобетонноpiratbit.pw



    Дорогой пользователь! Огромная просьба, поблагодарите релизера, оцените раздачу и оставьте свои комментарий, если Вы скачали Гена-Бетон через торрент бесплатно! Внесите свою лепту в развитие PiratBit!
    Комментировать посты могут только пользователи прошедшие не сложную регистрацию
    Показать сообщения:    

    Гена-Бетон через торрент
    Скачать бесплатно Гена-Бетон
    Гена-Бетон скачать торрент
    Гена-Бетон смотреть онлайн
    Cкачать фильм Гена-Бетон бесплатно
    Гена-Бетон скачать торрент в хорошем качестве
    Гена-Бетон смотреть онлайн бесплатно в хорошем качестве


    Вы не можете начинать темы
    Вы не можете отвечать на сообщения
    Вы не можете редактировать свои сообщения
    Вы не можете удалять свои сообщения
    Вы не можете голосовать в опросах
    Вы не можете прикреплять файлы к сообщениям
    Вы можете скачивать файлы