Ссылка на приватное зеркало нашего сайта всего за 1$. Внимание количество ограничено!!!

2 сезон

iTunes

1 сезон

1

2 сезон

2 сезон

iTunes

1 сезон

RePack

30

Ultimate

ВАЖНО

ИГРА 18+

pack

RePack

MK11
pack

Забери бонус

RePack

jed

!!Акция!!

Alien_Rage

RePack

fifa19

RePack

Assassins Creed: Odyssey

RePack

NEED FOR SPEED™ PAYBACK

4 сезон

9 сезон

Бесстыжие 9 сезон

Все сериалы

все сериалы на PB.wtf

RePack

FAR CRY 5
  

Джи – нестандартная смерть / Dji. Death Sails (Дмитрий Волошин ) [2014, короткометражка, комедия, мультфильм, WEB-DLRip] piratbit.pw

Джи – нестандартная смерть через торрент piratbit.pw

Размер: 82 MB | Добавлен: 5 лет 4 мес. назад | Торрент скачан:355 раз
Скачать  

29-06-2015 02:24 Джи – нестандартная смерть Скачать торрент  


Джи – нестандартная смерть / Dji. Death Sails
«Bad days at work may happen in anyone's life, even if you're a Grim Reaper»

ИНФОРМАЦИЯ:
Год выпуска: 2014
Страна: Молдова
Жанр: короткометражка, комедия, мультфильм
Продолжительность: 00:05:17
Перевод: Не требуется
Режиссер: Дмитрий Волошин

В Ролях:

Описание:
Джи - не очень везучая смерть, которой никак не удается выполнить свою работу. На этот раз ему предстоит встретиться с пиратом, который остался один на плоту посреди открытого моря. Ситуация идеальна, ничто не должно помешать Джи, но неожиданно события принимают совсем другой оборот.

  • Мировая премьера:19 декабря 2014

    ТЕХ.ДАННЫЕ:
    Качество: WEB-DLRip
    Формат: AVI
    Видео кодек: XviD
    Аудио кодек: AC3
    Видео: XviD, 720x400 (16:9), 1966 kbps, 30 fps, 0,228 bpp
    Аудио: AC3 / 2.0 / 44 kHz / 192 kbps / 16 bit



    Код:

    General
    Complete name                            : D:\Торенты\Dji. Death Sails (2014) WEB-DLRip.avi
    Format                                   : AVI
    Format/Info                              : Audio Video Interleave
    File size                                : 82.2 MiB
    Duration                                 : 5mn 17s
    Overall bit rate                         : 2 170 Kbps
    Writing application                      : XviD4PSP 6.0 / 54.29.105

    Video
    ID                                       : 0
    Format                                   : MPEG-4 Visual
    Format profile                           : Advanced Simple@L5
    Format settings, BVOP                    : No
    Format settings, QPel                    : No
    Format settings, GMC                     : No warppoints
    Format settings, Matrix                  : Default (H.263)
    Codec ID                                 : XVID
    Codec ID/Hint                            : XviD
    Duration                                 : 5mn 17s
    Bit rate                                 : 1 967 Kbps
    Width                                    : 720 pixels
    Height                                   : 400 pixels
    Display aspect ratio                     : 16:9
    Frame rate                               : 30.000 fps
    Color space                              : YUV
    Chroma subsampling                       : 4:2:0
    Bit depth                                : 8 bits
    Scan type                                : Progressive
    Compression mode                         : Lossy
    Bits/(Pixel*Frame)                       : 0.228
    Stream size                              : 74.5 MiB (91%)
    Writing library                          : XviD 64

    Audio
    ID                                       : 1
    Format                                   : AC-3
    Format/Info                              : Audio Coding 3
    Mode extension                           : CM (complete main)
    Codec ID                                 : 2000
    Duration                                 : 5mn 17s
    Bit rate mode                            : Constant
    Bit rate                                 : 192 Kbps
    Channel(s)                               : 2 channels
    Channel positions                        : Front: L R
    Sampling rate                            : 44.1 KHz
    Bit depth                                : 16 bits
    Compression mode                         : Lossy
    Stream size                              : 7.28 MiB (9%)
    Alignment                                : Aligned on interleaves
    Interleave, duration                     : 35 ms (1.04 video frame)

    Скриншоты:


    © Оформление by Ворон
    piratbit.pw



  • Скачать Джи – нестандартная смерть через торрент http://pic.kartinco.top/images/6/ordi9.jpg Скачать фильм Джи – нестандартная смерть через торрент бесплантно в хорошем качестве Описание: Джи - не очень везучая смерть, которой никак не удается выполнить свою работу. На этот раз ему предстоит встретиться с пиратом, ... 9 10 13
    Info! Золотая раздача, скачанное не засчитывается.
    Торрент: Зарегистрирован [2015-06-29 02:24] · скачан: 355 раз
    Статус: √ проверено
    Размер: 82 MB
    Как cкачать? Как скачать Джи – нестандартная смерть через торрент | qTorrent

    28-11-2019 20:33  

    Отключить всю рекламу на сайте

    29-06-2015 05:16 Джи – нестандартная смерть Скачать торрент  

    Спасибко!piratbit.pw



    29-06-2015 07:50 Джи – нестандартная смерть Скачать торрент  

    зачётный мульт))) спсpiratbit.pw



      Дорогой пользователь! Огромная просьба, поблагодарите релизера, оцените раздачу и оставьте свои комментарий, если Вы скачали Джи – нестандартная смерть через торрент бесплатно! Внесите свою лепту в развитие PiratBit!
      Комментировать посты могут только пользователи прошедшие не сложную регистрацию
      Показать сообщения:    

      Джи – нестандартная смерть через торрент
      Скачать бесплатно Джи – нестандартная смерть
      Джи – нестандартная смерть скачать торрент
      Джи – нестандартная смерть смотреть онлайн
      Cкачать фильм Джи – нестандартная смерть бесплатно
      Джи – нестандартная смерть скачать торрент в хорошем качестве
      Джи – нестандартная смерть смотреть онлайн бесплатно в хорошем качестве


      Вы не можете начинать темы
      Вы не можете отвечать на сообщения
      Вы не можете редактировать свои сообщения
      Вы не можете удалять свои сообщения
      Вы не можете голосовать в опросах
      Вы не можете прикреплять файлы к сообщениям
      Вы можете скачивать файлы