1 сезон

3 сезон

iTunes

1

iTunes

DUB Netflix

iTunes

13

1 сезон

RePack

30

Deluxe

pack

Легкие деньги

ВАЖНО

ИГРА 18+

pack

RePack

MK11

RePack

jed

RePack

fifa19

RePack

RDR2

RePack

NEED FOR SPEED™ PAYBACK

4 сезон

9 сезон

Бесстыжие 9 сезон

Все сериалы

все сериалы на PB.wtf

RePack

FAR CRY 5

Anonymous, доброе утро, мы не успеваем до 1 числа собрать деньги на оплату серверов, помогите нам пожалуйста в это трудное время. В качестве благодарности мы отключим Вам всю рекламу на сайте (укажите свой ник в строку Ваше имя)!

×
  
Magnet ссылка

Проси меня о чём угодно / Ask Me Anything (Эллисон Барнетт ) [2014, триллер, драма, детектив, WEB-DLRip, Любительский (одноголосый) [Алексей Толмачев] piratbit.pw

Проси меня о чём угодно через торрент piratbit.pw

Размер: 1.17 GB | Добавлен: 5 лет 11 мес. назад | Торрент скачан:246 раз
Скачать  

28-06-2015 13:29 Проси меня о чём угодно Скачать торрент  


Проси меня о чём угодно / Ask Me Anything


ИНФОРМАЦИЯ:
Год выпуска: 2014
Страна: США
Жанр: триллер, драма, детектив
Продолжительность: 01:38:41
Перевод: Любительский (одноголосый) [Алексей Толмачев]
Режиссер: Эллисон Барнетт

В Ролях:


Бритт Робертсон (Katie Kampenfelt), Молли Хэйгэн (Caroline Kampenfelt), Энди Бакли (Mark Aubichon), Роберт Патрик (Doug Kampenfelt), Зулейха Робинсон (Afreen), Кристиан Слэйтер (Paul Spooner), Кимберли Уильямс-Пэйсли (Margaret Spooner), Макс Карвер (Rory), Джастин Лонг (Dan Gallo), Мартин Шин (Glenn Warburg), Шэрон Оми (Ms. Matsuo), Джина Мантенья (Jade)

Описание:
Кэти Кэмпенфелт берет годичный перерыв перед колледжем, чтобы найти себя. Все свои приключения и сокровенные тайны она публикует в анонимном блоге. Но в итоге из-под ее бесстрашного повествования начинают проявляться части ее мрачного прошлого...

  • Мировая премьера:19 апреля 2014

    ТЕХ.ДАННЫЕ:
    Качество: WEB-DLRip
    Формат: AVI
    Видео кодек: XviD
    Аудио кодек: AC3, MP3
    Видео: XviD, 720x400 (16:9), 1514 kbps, 23,976 fps, 0,219 bpp
    Аудио №1: MP3 / 2.0 / 48 kHz / 128 kbps / [Алексей Толмачев]
    Аудио №2: AC3 / 2.0 / 48 kHz / 384 kbps / 16 bit



    Код:

    General
    Complete name                            : D:\Торенты\Ask.Me.Anything.2014.L1.WEB-DLRip.1.46GB.avi
    Format                                   : AVI
    Format/Info                              : Audio Video Interleave
    File size                                : 1.46 GiB
    Duration                                 : 1h 38mn
    Overall bit rate                         : 2 121 Kbps
    Writing application                      : VirtualDubMod 1.5.10.2 (build 2540/release)
    Writing library                          : VirtualDubMod build 2540/release

    Video
    ID                                       : 0
    Format                                   : MPEG-4 Visual
    Format profile                           : Advanced Simple@L5
    Format settings, BVOP                    : 2
    Format settings, QPel                    : No
    Format settings, GMC                     : No warppoints
    Format settings, Matrix                  : Default (H.263)
    Muxing mode                              : Packed bitstream
    Codec ID                                 : XVID
    Codec ID/Hint                            : XviD
    Duration                                 : 1h 38mn
    Bit rate                                 : 1 515 Kbps
    Width                                    : 720 pixels
    Height                                   : 400 pixels
    Display aspect ratio                     : 16:9
    Frame rate                               : 23.976 fps
    Color space                              : YUV
    Chroma subsampling                       : 4:2:0
    Bit depth                                : 8 bits
    Scan type                                : Progressive
    Compression mode                         : Lossy
    Bits/(Pixel*Frame)                       : 0.219
    Stream size                              : 1.04 GiB (71%)
    Writing library                          : XviD 64

    Audio #1
    ID                                       : 1
    Format                                   : MPEG Audio
    Format version                           : Version 1
    Format profile                           : Layer 3
    Mode                                     : Joint stereo
    Codec ID                                 : 55
    Codec ID/Hint                            : MP3
    Duration                                 : 1h 38mn
    Bit rate mode                            : Constant
    Bit rate                                 : 128 Kbps
    Channel(s)                               : 2 channels
    Sampling rate                            : 48.0 KHz
    Compression mode                         : Lossy
    Stream size                              : 90.4 MiB (6%)
    Alignment                                : Aligned on interleaves

    Audio #2
    ID                                       : 2
    Format                                   : AC-3
    Format/Info                              : Audio Coding 3
    Mode extension                           : CM (complete main)
    Codec ID                                 : 2000
    Duration                                 : 1h 38mn
    Bit rate mode                            : Constant
    Bit rate                                 : 384 Kbps
    Channel(s)                               : 2 channels
    Channel positions                        : Front: L R
    Sampling rate                            : 48.0 KHz
    Bit depth                                : 16 bits
    Compression mode                         : Lossy
    Stream size                              : 271 MiB (18%)
    Alignment                                : Aligned on interleaves

    Скриншоты:


    © Оформление by Ворон
    piratbit.pw



  • Скачать Проси меня о чём угодно через торрент https://pic1.kartinco.top/images/61/ordi9.jpg Скачать фильм Проси меня о чём угодно через торрент бесплантно в хорошем качестве Описание: Кэти Кэмпенфелт берет годичный перерыв перед колледжем, чтобы найти себя. Все свои приключения и сокровенные тайны она публикует ... 10 10 7
    Торрент: Зарегистрирован [2015-06-28 13:29] · скачан: 246 раз
    Статус: √ проверено
    Размер: 1.17 GB
    Как cкачать? Как скачать Проси меня о чём угодно через торрент | UTorrent

    % Раздел Тема Автор DL S | L
    Фильмы (WEB-DL 720p, 1080p) [ 3 GB ] Проси меня о чём угодно / Ask Me Anything [2014 WEB-DL 720p Любительский [Алексей Толмачев] Ворон Скачать
    1 | 0

    28-11-2019 20:33  

    Отключить всю рекламу на сайте


    29-06-2015 09:24 Проси меня о чём угодно Скачать торрент  

    Фильм не плохой, советую посмотреть. Автору спасибо.piratbit.pw



      Дорогой пользователь! Огромная просьба, поблагодарите релизера, оцените раздачу и оставьте свои комментарий, если Вы скачали Проси меня о чём угодно через торрент бесплатно! Внесите свою лепту в развитие PiratBit!
      Комментировать посты могут только пользователи прошедшие не сложную регистрацию
      Показать сообщения:    

      Проси меня о чём угодно через торрент
      Скачать бесплатно Проси меня о чём угодно
      Проси меня о чём угодно скачать торрент
      Проси меня о чём угодно смотреть онлайн
      Cкачать фильм Проси меня о чём угодно бесплатно
      Проси меня о чём угодно скачать торрент в хорошем качестве
      Проси меня о чём угодно смотреть онлайн бесплатно в хорошем качестве


      Вы не можете начинать темы
      Вы не можете отвечать на сообщения
      Вы не можете редактировать свои сообщения
      Вы не можете удалять свои сообщения
      Вы не можете голосовать в опросах
      Вы не можете прикреплять файлы к сообщениям
      Вы можете скачивать файлы