Ссылка на приватное зеркало нашего сайта всего за 1$. Внимание количество ограничено!!!

2 сезон

iTunes

1 сезон

1

2 сезон

2 сезон

iTunes

1 сезон

RePack

30

Новинка

ВАЖНО

ИГРА 18+

pack

RePack

MK11
pack

Забери бонус

RePack

jed

!!Акция!!

Alien_Rage

RePack

fifa19

RePack

Assassins Creed: Odyssey

RePack

NEED FOR SPEED™ PAYBACK

4 сезон

9 сезон

Бесстыжие 9 сезон

Все сериалы

все сериалы на PB.wtf

RePack

FAR CRY 5
  

Биошок интим / Bioshock Intimate [uncen] [2014 г., Anal, Bukake, Parody, GameRip., 720p] [eng] piratbit.pw

Биошок интим через торрент piratbit.pw

Размер: 192 MB | Добавлен: 5 лет 5 мес. назад | Торрент скачан:723 раза
Скачать  

16-06-2015 17:15 Биошок интим Скачать торрент  

Биошок интим / Bioshock Intimate

Год производства: 2014 г.
Жанр: Anal, СПАМ
Продолжительность: 12:11
Цензура: Отсутствует
Язык: Английский
Озвучка: Оригинальная
Субтитры: Встроенные неотключаемые (хардсаб)

Автор оригинала:



Описание: Adult parody game of Bioshock Infinite featuring Elizabeth.

Качество видео: GameRip
Разрешение видео: 720p
Формат видео: AVI
Видео кодек: H.264/AVC
Аудио кодек: MP3
Видео: MPEG4 Video (H264) 1280x720 30fps 1993kbps
Аудио 1: MP3 44100Hz stereo 192kbps
Video
ID : 0
Format : AVC
Format/Info : Advanced Video Codec
Format profile : Main@L5.1
Format settings, CABAC : Yes
Format settings, ReFrames : 1 frame
Codec ID : H264
Duration : 12mn 11s
Bit rate : 1 994 Kbps
Width : 1 280 pixels
Height : 720 pixels
Display aspect ratio : 16:9
Frame rate : 30.000 fps
Color space : YUV
Chroma subsampling : 4:2:0
Bit depth : 8 bits
Scan type : Progressive
Bits/(Pixel*Frame) : 0.072
Stream size : 174 MiB (91%)
Audio
ID : 1
Format : MPEG Audio
Format version : Version 1
Format profile : Layer 3
Codec ID : 55
Codec ID/Hint : MP3
Duration : 12mn 11s
Bit rate mode : Constant
Bit rate : 192 Kbps
Channel(s) : 2 channels
Sampling rate : 44.1 KHz
Compression mode : Lossy
Stream size : 16.7 MiB (9%)
Alignment : Split accross interleaves
Interleave, duration : 33 ms (1.00 video frame)
Interleave, preload duration : 109 ms
Writing library : LAMELAME_MAJOR_VERSI
piratbit.pw



pack Скачать Биошок интим через торрент http://pic.kartinco.top/images/11/e396i.jpg Скачать фильм Биошок интим через торрент бесплантно в хорошем качестве Описание: Adult parody game of Bioshock Infinite featuring ... 9.1 10 25
Торрент: Зарегистрирован [2015-06-16 17:18] · скачан: 723 раз
Статус: √ проверено
Размер: 192 MB
Как cкачать? Как скачать Биошок интим через торрент | qTorrent

28-11-2019 20:33  

Отключить всю рекламу на сайте

16-06-2015 21:56 Биошок интим Скачать торрент  

что за игра?piratbit.pw



pack

16-11-2015 20:47 Биошок интим Скачать торрент  

multidvd писал(а):

что за игра?

рукаблудствоpiratbit.pw



pack
    Дорогой пользователь! Огромная просьба, поблагодарите релизера, оцените раздачу и оставьте свои комментарий, если Вы скачали Биошок интим через торрент бесплатно! Внесите свою лепту в развитие PiratBit!
    Комментировать посты могут только пользователи прошедшие не сложную регистрацию
    Показать сообщения:    

    Биошок интим через торрент
    Скачать бесплатно Биошок интим
    Биошок интим скачать торрент
    Биошок интим смотреть онлайн
    Cкачать фильм Биошок интим бесплатно
    Биошок интим скачать торрент в хорошем качестве
    Биошок интим смотреть онлайн бесплатно в хорошем качестве


    Вы не можете начинать темы
    Вы не можете отвечать на сообщения
    Вы не можете редактировать свои сообщения
    Вы не можете удалять свои сообщения
    Вы не можете голосовать в опросах
    Вы не можете прикреплять файлы к сообщениям
    Вы можете скачивать файлы