Ссылка на приватное зеркало всего за 1$. Внимание количество ограничено!!!

iTunes

iTunes

iTunes

1

iTunes

iTunes

iTunes

iTunes

iTunes

30
pack

$ от Little Big

ВАЖНО

!!Акция!!

Alien_RageХит недели

RePack

Resident Evil 21

ИГРА 18+

pack

RePack

jed

!!Акция!!

Alien_Rage

RePack

fifa19

RePack

Assassins Creed: Odyssey

RePack

NEED FOR SPEED™ PAYBACK

4 сезон

9 сезон

Бесстыжие 9 сезон

Все сериалы

все сериалы на PB.wtf

RePack

FAR CRY 5
  

Белый клык / Zanna Bianca (Лучио Фульчи / Lucio Fulci) [1973, Италия, Испания, Франция, приключения, вестерн, DVDRip, Дубляж] piratbit.pw

Белый клык через торрент piratbit.pw

Размер: 2.15 GB | Добавлен: 5 лет назад | Торрент скачан:51 раз
Скачать  

14-06-2015 14:15 Белый клык Скачать торрент  

Белый клык / Zanna Bianca

Год выпуска: 1973
Страна: Италия, Испания, Франция
Жанр: приключения, вестерн

Продолжительность: 01:39:32
Перевод: Дубляж
Субтитры: Нет
Режиссер: Лучио Фульчи / Lucio Fulci
В ролях: Франко Неро (Jason Scott), Вирна Лизи (Sister Evangelina), Фернандо Рей (Father Oatley), Джон Стайнер (Charles «Beauty» Smith), Миссаэле (Mitsah), Даниэль Мартин (Charlie), Раймонд Хармсторф (Kurt Jansen), Даниэле Дублино (Chester), Кароль Андре (Krista Oatley), Рик Батталья (Jim Hall), Джон Барта (Mountie who frees Chester), Луиджи Антонио Гуэрра
Описание:
Северная Америка, девятнадцатый век, эпоха «золотой лихорадки». Храбрый пес Белый Клык, которого вырастили индейцы, считал, что все люди - добрые. Но когда вокруг все бьются за золото, нужно уметь выбирать себе друзей. И уметь отомстить за них...
Рейтинг
kinopoisk.ru: 6.710 (289)
imdb.com: 6.10 (390)
MPAA: PG - Рекомендуется присутствие родителей
Качество: DVDRip
Формат: AVI
Видео кодек: XviD
Аудио кодек:AC3
Видео: XviD, 720x384 (1.875), 2686 kbps, 25 fps, 0,389 bpp
Аудио №1: AC3 / 2.0 / 48 kHz / 192 kbps / 16 bit русский дубляж
Аудио №2: AC3 / 2.0 / 48 kHz / 192 kbps / 16 bit английский

General
Complete name : D:\torrent\Belyj klyk 1973 DVDRip.avi
Format : AVI
Format/Info : Audio Video Interleave
Format profile : OpenDML
File size : 2.15 GiB
Duration : 1h 39mn
Overall bit rate : 3 089 Kbps
Writing application : FairUse Wizard - http://fairusewizard.com
Writing library : The best and REALLY easy backup tool

Video
ID : 0
Format : MPEG-4 Visual
Format profile : Advanced Simple@L5
Format settings, BVOP : 1
Format settings, QPel : No
Format settings, GMC : No warppoints
Format settings, Matrix : Default (MPEG)
Muxing mode : Packed bitstream
Codec ID : XVID
Codec ID/Hint : XviD
Duration : 1h 39mn
Bit rate : 2 687 Kbps
Width : 720 pixels
Height : 384 pixels
Display aspect ratio : 1.875
Frame rate : 25.000 fps
Color space : YUV
Chroma subsampling : 4:2:0
Bit depth : 8 bits
Scan type : Progressive
Compression mode : Lossy
Bits/(Pixel*Frame) : 0.389
Stream size : 1.87 GiB (87%)
Writing library : XviD 1.2.0.dev47 (UTC 2006-11-01)

Audio #1
ID : 1
Format : AC-3
Format/Info : Audio Coding 3
Mode extension : CM (complete main)
Codec ID : 2000
Duration : 1h 39mn
Bit rate mode : Constant
Bit rate : 192 Kbps
Channel(s) : 2 channels
Channel positions : Front: L R
Sampling rate : 48.0 KHz
Bit depth : 16 bits
Compression mode : Lossy
Stream size : 137 MiB (6%)
Alignment : Split accross interleaves
Interleave, duration : 40 ms (1.00 video frame)
Interleave, preload duration : 500 ms

Audio #2
ID : 2
Format : AC-3
Format/Info : Audio Coding 3
Mode extension : CM (complete main)
Codec ID : 2000
Duration : 1h 39mn
Bit rate mode : Constant
Bit rate : 192 Kbps
Channel(s) : 2 channels
Channel positions : Front: L R
Sampling rate : 48.0 KHz
Bit depth : 16 bits
Compression mode : Lossy
Stream size : 137 MiB (6%)
Alignment : Split accross interleaves
Interleave, duration : 40 ms (1.00 video frame)
Interleave, preload duration : 500 ms
piratbit.pw
!кэп писал(а):

*Запрещено раздавать видеофайлы в контейнере avi с битрейтом видео свыше 2500 Кбит/с.
Правила раздела Фильмы. Как правильно оформить раздачу фильма



Скачать Белый клык через торрент http://pic.kartinco.top/images/11/afizl.jpg Скачать фильм Белый клык через торрент бесплантно в хорошем качестве Описание: Северная Америка, девятнадцатый век, эпоха «золотой лихорадки». Храбрый пес Белый Клык, которого вырастили индейцы, считал, что ... 9.8 10 5
Торрент: Зарегистрирован [2015-06-14 14:15] · скачан: 51 раз
Статус: # сомнительно
Размер: 2.15 GB
Как cкачать? Как скачать Белый клык через торрент | qTorrent

28-11-2019 20:33  

Отключить всю рекламу на сайте

    Дорогой пользователь! Огромная просьба, поблагодарите релизера, оцените раздачу и оставьте свои комментарий, если Вы скачали Белый клык через торрент бесплатно! Внесите свою лепту в развитие PiratBit!
    Комментировать посты могут только пользователи прошедшие не сложную регистрацию
    Показать сообщения:    

    Белый клык через торрент
    Скачать бесплатно Белый клык
    Белый клык скачать торрент
    Белый клык смотреть онлайн
    Cкачать фильм Белый клык бесплатно
    Белый клык скачать торрент в хорошем качестве
    Белый клык смотреть онлайн бесплатно в хорошем качестве


    Вы не можете начинать темы
    Вы не можете отвечать на сообщения
    Вы не можете редактировать свои сообщения
    Вы не можете удалять свои сообщения
    Вы не можете голосовать в опросах
    Вы не можете прикреплять файлы к сообщениям
    Вы можете скачивать файлы