1 сезон

1 сезон

iTunes

1

КиноПоиск HD

Кинопоиск HD

iTunes

13

1 сезон

RePack

30

Ultimate

ВАЖНО

ИГРА 18+

pack

RePack

MK11
pack

Легкие деньги

RePack

jed

RePack

fifa19

RePack

RDR2

RePack

NEED FOR SPEED™ PAYBACK

4 сезон

9 сезон

Бесстыжие 9 сезон

Все сериалы

все сериалы на PB.wtf

RePack

FAR CRY 5
  
Magnet ссылка

Интерстеллар / Interstellar (Кристофер Нолан) [2014, фантастика, боевик, приключения, BDRip-AVC] [IMAX EDITION] 2x[AVO] (Ю.Сербин, Ю.Живов) + [Sub] (Rus, Eng) piratbit.pw

Интерстеллар через торрент piratbit.pw

Размер: 2.13 GB | Добавлен: 5 лет 10 мес. назад | Торрент скачан:118 раз
Скачать  

09-06-2015 18:52 Интерстеллар Скачать торрент  

Интерстеллар / Interstellar
Год выхода: 2014
Жанр: фантастика, боевик, приключения
Страна: США, Великобритания
Студия: Paramount Pictures, Lynda Obst Productions
Продолжительность: 02:49:03
Перевод №1: Авторский (одноголосный) [Ю.Сербин]
Перевод №2: Авторский (одноголосный) [Ю.Живов]
Субтитры: Русские (full, forc), английские (Full, SDH)

Режиссер: Кристофер Нолан Продюсер: Кристофер Нолан, Линда Обст, Эмма Томас

В ролях: Мэттью МакКонахи, Энн Хэтэуэй, Кейси Аффлек, Джессика Честейн, Тофер Грейс, Уэс Бентли, Майкл Кейн, Маккензи Фой, Джон Литгоу, Эллен Бёрстин


«Следующий шаг человечества станет величайшим»
Когда засуха приводит человечество к продовольственному кризису, коллектив исследователей и учёных отправляется сквозь червоточину (которая предположительно соединяет области пространства-времени через большое расстояние) в путешествие, чтобы превзойти прежние ограничения для космических путешествий человека и переселить человечество на другую планету.



Качество: BDRip-AVC [IMAX EDITION] [исх. BluRay 1080]
Формат: MKV
Видео кодек: AVC
Аудио кодек: AC3
Видео: V_MPEG4/ISO/AVC, 1132 Кбит/сек, 768x432 at 23.976 fps
Аудио #1: AC3, 384 kb/s (6 ch), 48 Кгц [Ю,Сербин]
Аудио #2: AC3, 384 kb/s (6 ch), 48 Кгц [Ю,Живов]
General
Unique ID : 239575662596333535957736915949743316592 (0xB43C982108E0A7A5A16E8951F3F91E70)
Complete name : F:\NEW VIDEO\Interstellar.2014.BDRip-AVC.2x[AVO] (Serbin, Jhivov)+SUB.km.mkv
Format : Matroska
File size : 2.13 GiB
Duration : 2h 49mn
Overall bit rate : 1 802 Kbps
Encoded date : UTC 2015-06-09 18:11:03
Writing application : mkvmerge v6.1.0 ('Old Devil') built on Mar 4 2013 09:10:42
Writing library : libebml v1.3.0 + libmatroska v1.4.0

Video
ID : 1
Format : AVC
Format/Info : Advanced Video Codec
Format profile : High@L4.1
Format settings, CABAC : Yes
Format settings, ReFrames : 11 frames
Format settings, GOP : M=12, N=48
Codec ID : V_MPEG4/ISO/AVC
Duration : 2h 49mn
Bit rate : 1 132 Kbps
Width : 768 pixels
Height : 432 pixels
Display aspect ratio : 16:9
Frame rate : 23.976 fps
Color space : YUV
Chroma subsampling : 4:2:0
Bit depth : 8 bits
Scan type : Progressive
Bits/(Pixel*Frame) : 0.130
Stream size : 1.18 GiB (55%)
Writing library : x264 core 138 r2356 a1d3d17
Encoding settings : cabac=1 / ref=11 / deblock=1:-3:-2 / analyse=0x3:0x113 / me=umh / subme=11 / psy=1 / psy_rd=1.00:0.05 / mixed_ref=1 / me_range=32 / chroma_me=1 / trellis=2 / 8x8dct=1 / cqm=0 / deadzone=21,11 / fast_pskip=0 / chroma_qp_offset=-3 / threads=3 / lookahead_threads=1 / sliced_threads=0 / nr=0 / decimate=0 / interlaced=0 / bluray_compat=0 / constrained_intra=0 / bframes=11 / b_pyramid=2 / b_adapt=2 / b_bias=0 / direct=3 / weightb=1 / open_gop=0 / weightp=2 / keyint=240 / keyint_min=24 / scenecut=40 / intra_refresh=0 / rc_lookahead=40 / rc=2pass / mbtree=1 / bitrate=1032 / ratetol=1.0 / qcomp=0.60 / qpmin=0 / qpmax=69 / qpstep=4 / cplxblur=20.0 / qblur=0.5 / ip_ratio=1.40 / aq=1:1.00

Audio #1
ID : 2
Format : AC-3
Format/Info : Audio Coding 3
Mode extension : CM (complete main)
Codec ID : A_AC3
Duration : 2h 49mn
Bit rate mode : Constant
Bit rate : 384 Kbps
Channel(s) : 6 channels
Channel positions : Front: L C R, Side: L R, LFE
Sampling rate : 48.0 KHz
Bit depth : 16 bits
Compression mode : Lossy
Stream size : 464 MiB (21%)
Title : AVO *SERBIN*
Language : Russian

Audio #2
ID : 3
Format : AC-3
Format/Info : Audio Coding 3
Mode extension : CM (complete main)
Codec ID : A_AC3
Duration : 2h 49mn
Bit rate mode : Constant
Bit rate : 384 Kbps
Channel(s) : 6 channels
Channel positions : Front: L C R, Side: L R, LFE
Sampling rate : 48.0 KHz
Bit depth : 16 bits
Compression mode : Lossy
Stream size : 464 MiB (21%)
Title : AVO *ZHIVOV*
Language : Russian

Text #1
ID : 4
Format : UTF-8
Codec ID : S_TEXT/UTF8
Codec ID/Info : UTF-8 Plain Text
Title : RUS.forc
Language : Russian

Text #2
ID : 5
Format : UTF-8
Codec ID : S_TEXT/UTF8
Codec ID/Info : UTF-8 Plain Text
Title : RUS.full
Language : Russian

Text #3
ID : 6
Format : UTF-8
Codec ID : S_TEXT/UTF8
Codec ID/Info : UTF-8 Plain Text
Title : ENG.full
Language : English

Text #4
ID : 7
Format : UTF-8
Codec ID : S_TEXT/UTF8
Codec ID/Info : UTF-8 Plain Text
Title : ENG.SDH
Language : English

[/code]
скриншот   скриншот   скриншот   скриншот   скриншот   скриншот   скриншот  
piratbit.pw



Скачать Интерстеллар через торрент http://i70.fastpic.ru/big/2015/0609/c4/251cbf04439206c1e5fd13ca0ca4f1c4.png Скачать фильм Интерстеллар через торрент бесплантно в хорошем качестве В ролях: Мэттью МакКонахи, Энн Хэтэуэй, Кейси Аффлек, Джессика Честейн, Тофер Грейс, Уэс Бентли, Майкл Кейн, Маккензи Фой, Джон Литгоу, ... 10 10 4
Info! Золотая раздача, скачанное не засчитывается.
Торрент: Зарегистрирован [2015-06-09 18:52] · скачан: 118 раз
Статус: √ проверено
Размер: 2.13 GB
Как cкачать? Как скачать Интерстеллар через торрент | UTorrent

% Раздел Тема Автор DL S | L
Ultra HD (UHD: 2K, 4K, 8K) — видео сверхвысокой чёткости [ 84.81 GB ] Интерстеллар / Interstellar [2014 UHD BDRemux 2160p] DUB + MVO + 3xAVO [IMAX] sheker187 Скачать
1 | 0
Фильмы [HD 720p, 1080p] (Хороший звук DUB, MVO) [ 11.55 GB ] Интерстеллар / Interstellar [2014 BDRip 1080p [IMAX Edition] Ворон Скачать
2 | 0
Ultra HD (UHD: 2K, 4K, 8K) — видео сверхвысокой чёткости [ 56.48 GB ] Интерстеллар / Interstellar [2014 UHD BDRip 2160p] [IMAX Edition] DUB + MVO + 3xAVO sheker187 Скачать
1 | 0
Фильмы (BDRip, HDrip-AVC) (48-60 fps) [ 3.98 GB ] Интерстеллар / Interstellar [2014 BDRip-AVC 60fps IMAX ] от R.G. HD-Films Tiberiumsun69 Скачать
4 | 0
Фильмы [HD 720p, 1080p] (Хороший звук DUB, MVO) [ 7.75 GB ] Интерстеллар / Interstellar [2014 BDRip 1080p HEVC ] [IMAX Edition] Мичман37 Скачать
3 | 0
Фильмы 2014 [DVDrip, WEB-DLRip, HDrip] [ 2.1 GB ] Интерстеллар / Interstellar [2014 HDRip-AVC ()] [IMAX Edition] От R.G. PiratFilms White Smoke Скачать
1 | 0
Фильмы (HD 720p, 1080p) (48-60 fps) [ 28.63 GB ] Интерстеллар / Interstellar [2014 BDRip 1080p 60fps IMAX MVO AVO VO Original] Tiberiumsun69 Скачать
1 | 0

28-11-2019 20:33  

Отключить всю рекламу на сайте

09-06-2015 18:58 Интерстеллар Скачать торрент  

Очень вот нужны их ссаные одноголоски.piratbit.pw



09-06-2015 19:03 Интерстеллар Скачать торрент  

я вот себе лицензию купил=)) Этот фильм такого стоит.piratbit.pw



09-06-2015 19:05 Интерстеллар Скачать торрент  

wowandos писал(а):

я вот себе лицензию купил=)) Этот фильм такого стоит.

мне тебя жаль...только идиоты в нашем мире платят за то,что можно взять бесплатно..piratbit.pw



09-06-2015 19:17 Интерстеллар Скачать торрент  

ZohanTvir писал(а):

Очень вот нужны их ссаные одноголоски.

комментарии малолетних троллей тут точно никому не интересны sarcastic Глаза раскрываем и читаем в каком разделе находимся!Достали уже такие тупаки писать свои "умные" коментыpiratbit.pw



09-06-2015 19:18 Интерстеллар Скачать торрент  

wowandos писал(а):

я вот себе лицензию купил=)) Этот фильм такого стоит.

Орден вручить значит нужно sarcasticpiratbit.pw



09-06-2015 19:19 Интерстеллар Скачать торрент  

Бакутик писал(а):

мне тебя жаль...только идиоты в нашем мире платят за то,что можно взять бесплатно..

:rofle: piratbit.pw



09-06-2015 19:26 Интерстеллар Скачать торрент  

killermax2013 писал(а):

ZohanTvir писал(а):

Очень вот нужны их ссаные одноголоски.

комментарии малолетних троллей тут точно никому не интересны sarcastic Глаза раскрываем и читаем в каком разделе находимся!Достали уже такие тупаки писать свои "умные" коменты

Вот это реакция...хмpiratbit.pw



09-06-2015 20:39 Интерстеллар Скачать торрент  

wowandos писал(а):

я вот себе лицензию купил=)) Этот фильм такого стоит.

И правильно зделал, если понравился фильм,почему бы и нет?.А "умникам чуть ниже,советую ,прежде чем написать свой нелепый коммент,думайте своей башкой.....piratbit.pw



    Дорогой пользователь! Огромная просьба, поблагодарите релизера, оцените раздачу и оставьте свои комментарий, если Вы скачали Интерстеллар через торрент бесплатно! Внесите свою лепту в развитие PiratBit!
    Комментировать посты могут только пользователи прошедшие не сложную регистрацию
    Показать сообщения:    

    Интерстеллар через торрент
    Скачать бесплатно Интерстеллар
    Интерстеллар скачать торрент
    Интерстеллар смотреть онлайн
    Cкачать фильм Интерстеллар бесплатно
    Интерстеллар скачать торрент в хорошем качестве
    Интерстеллар смотреть онлайн бесплатно в хорошем качестве


    Вы не можете начинать темы
    Вы не можете отвечать на сообщения
    Вы не можете редактировать свои сообщения
    Вы не можете удалять свои сообщения
    Вы не можете голосовать в опросах
    Вы не можете прикреплять файлы к сообщениям
    Вы можете скачивать файлы