1 сезон

1 сезон

iTunes

1

КиноПоиск HD

Кинопоиск HD

iTunes

13

1 сезон

RePack

30

Новинка

ВАЖНО

ИГРА 18+

pack

RePack

MK11
pack

Легкие деньги

RePack

jed

RePack

fifa19

RePack

RDR2

RePack

NEED FOR SPEED™ PAYBACK

4 сезон

9 сезон

Бесстыжие 9 сезон

Все сериалы

все сериалы на PB.wtf

RePack

FAR CRY 5
  
Magnet ссылка

Кунг Фьюри / Kung Fury (Роджер Дональдсон / Roger Donaldson) [2015, короткометражка, фантастика, фэнтези, боевик, комедия, WEB-DLRip] [AVO] (Л.Володарский) piratbit.pw

Кунг Фьюри через торрент piratbit.pw

Размер: 465 MB | Добавлен: 5 лет 10 мес. назад | Торрент скачан:109 раз
Скачать  

09-06-2015 13:17 Кунг Фьюри Скачать торрент  

Кунг Фьюри / Kung Fury
Год выпуска: 2015
Страна: Швеция
Жанр: короткометражка, фантастика, фэнтези, боевик, комедия
Продолжительность: 00:30:20
Перевод: Авторский (одноголосый, закадровый) [Леонид Володарский]
Cубтитры: нет

Режиссер: Дэвид Сандберг / David Sandberg

В ролях: Дэвид Сандберг, Йорма Такконе, Леопольд Нильссон, Стивен Чю, Андреас Кахлинг, Эрик Хёрнквист, Элени Янг, Хелен Алсон, Пер-Хенрик Арвидус, Эос Карлссон

Описание: В Майами 80-х появляется самый опасный преступник всех времен — Адольф Гитлер, по прозвищу Кунг Фюрер. Суперкоп Кунг Фьюри решает совершить путешествие во времени в нацистскую Германию, чтобы убить Гитлера и положить конец нацистской империи.



Качество видео: WEB-DLRip
Формат видео: AVI
Видео кодек: XviD
Аудио кодек: AC3
Видео: 688x384 (1.79:1), 25 fps, XviD build 73 ~1942 kbps avg, 0.29 bit/pixel
Аудио: 48 kHz, AC3 Dolby Digital, 2/0 (L,R) ch, ~192 kbps

Релиз от -- JIuI3epIIyJIb
за перевод Володарского большое спасибо музыкальному сообществу «E:\music\Retrowave», а также Максиму Куприянову
Полное имя : Кунг Фьюри.avi
Формат : AVI
Формат/Информация : Audio Video Interleave
Размер файла : 465 Мбайт
Продолжительность : 30 м.
Общий поток : 2144 Кбит/сек
Программа кодирования : VirtualDubMod 1.5.10.2 (build 2540/release)
Видео
Идентификатор : 0
Формат : MPEG-4 Visual
Профиль формата : Advanced Simple@L5
Параметр BVOP формата : 1
Параметр QPel формата : Нет
Параметр GMC формата : Без точки перехода
Параметр матрицы формата : Выборочная
Идентификатор кодека : XVID
Идентификатор кодека/Подсказка : XviD
Продолжительность : 30 м.
Битрейт : 1942 Кбит/сек
Ширина : 688 пикселей
Высота : 384 пикселя
Соотношение сторон : 16:9
Частота кадров : 25,000 кадров/сек
Цветовое пространство : YUV
Субдискретизация насыщенности : 4:2:0
Битовая глубина : 8 бит
Тип развёртки : Прогрессивная
Метод сжатия : С потерями
Бит/(Пиксели*Кадры) : 0.294
Размер потока : 422 Мбайт (91%)
Библиотека кодирования : XviD 73
Аудио
Идентификатор : 1
Формат : AC-3
Формат/Информация : Audio Coding 3
Расширение режима : CM (complete main)
Параметр Endianness формата : Big
Идентификатор кодека : 2000
Продолжительность : 30 м.
Вид битрейта : Постоянный
Битрейт : 192 Кбит/сек
Каналы : 2 канала
Расположение каналов : Front: L R
Частота : 48,0 КГц
Битовая глубина : 16 бит
Метод сжатия : С потерями
Размер потока : 41,7 Мбайт (9%)
Выравнивание : Разделение по промежуткам
Продолжительность промежутка : 40 мс. (1,00 видеокадр)
Время предзагрузки промежутка : 500 мс.
piratbit.pw



Скачать Кунг Фьюри через торрент http://i69.fastpic.ru/big/2015/0609/68/e97cd3fb2d84ecd77e9240e69bb90068.jpg Скачать фильм Кунг Фьюри через торрент бесплантно в хорошем качестве Описание: В Майами 80-х появляется самый опасный преступник всех времен — Адольф Гитлер, по прозвищу Кунг Фюрер. Суперкоп Кунг Фьюри решает ... 9.1 10 7
Торрент: Зарегистрирован [2015-06-09 13:17] · скачан: 109 раз
Статус: √ проверено
Размер: 465 MB
Как cкачать? Как скачать Кунг Фьюри через торрент | UTorrent

% Раздел Тема Автор DL S | L
Фильмы (WEB-DL 720p, 1080p) [ 2.35 GB ] Кунг Фьюри / Кунг Фурор / Кунг Фури / Kung Fury [2015 короткометражка WEBRip 1080p] 3x[MVO[ + 2x[DVO] + 2x[AVO] + 14x[VO] killermax2013 Скачать
3 | 0
Фильмы с авторской озвучкой [ 508 MB ] Кунг Фьюри / Kung Fury [2015 короткометражка WEB-DLRip] AVO [Володарский]+[Дмитрий "Гоблин" Пучков] Ворон Скачать
1 | 0
T Фильмы 2015 [DVDrip, WEB-DLRip, HDrip] [ 488 MB ] Кунг Фьюри / Kung Fury [2015 Короткометражка WEB-DLRip многоголосый - Ozz] Anonymous Скачать
1 | 0
T Фильмы (WEB-DL 720p, 1080p) [ 946 MB ] Кунг Фьюри / Kung Fury [2015 короткометражка WEB-DLRip 1080p Авторский ] Userman4ik Скачать
1 | 0
T Фильмы (WEB-DL 720p, 1080p) [ 817 MB ] Кунг Фьюри / Kung Fury [2015 короткометражка WEB-DL 1080p [OzzTv] Ворон Скачать
1 | 0
Фильмы без перевода [ 775 MB ] Кунг Фьюри / Kung Fury [2015 короткометражка WEB-DLRip 1080p Субтитры] Userman4ik Скачать
1 | 0

28-11-2019 20:33  

Отключить всю рекламу на сайте

09-06-2015 14:11 Кунг Фьюри Скачать торрент  

Прикольный фильм на 1 разpiratbit.pw



09-06-2015 16:32 Кунг Фьюри Скачать торрент  

Wyrdylak007781 писал(а):

Прикольный фильм на 1 раз

3 раза посмотрелpiratbit.pw



10-06-2015 14:17 Кунг Фьюри Скачать торрент  

jetli23, чёже не пятьpiratbit.pw



    Дорогой пользователь! Огромная просьба, поблагодарите релизера, оцените раздачу и оставьте свои комментарий, если Вы скачали Кунг Фьюри через торрент бесплатно! Внесите свою лепту в развитие PiratBit!
    Комментировать посты могут только пользователи прошедшие не сложную регистрацию
    Показать сообщения:    

    Кунг Фьюри через торрент
    Скачать бесплатно Кунг Фьюри
    Кунг Фьюри скачать торрент
    Кунг Фьюри смотреть онлайн
    Cкачать фильм Кунг Фьюри бесплатно
    Кунг Фьюри скачать торрент в хорошем качестве
    Кунг Фьюри смотреть онлайн бесплатно в хорошем качестве


    Вы не можете начинать темы
    Вы не можете отвечать на сообщения
    Вы не можете редактировать свои сообщения
    Вы не можете удалять свои сообщения
    Вы не можете голосовать в опросах
    Вы не можете прикреплять файлы к сообщениям
    Вы можете скачивать файлы