1 сезон

3 сезон

iTunes

1

iTunes

DUB Netflix

iTunes

13

1 сезон

RePack

30

Deluxe

pack

Легкие деньги

ВАЖНО

ИГРА 18+

pack

RePack

MK11

RePack

jed

RePack

fifa19

RePack

RDR2

RePack

NEED FOR SPEED™ PAYBACK

4 сезон

9 сезон

Бесстыжие 9 сезон

Все сериалы

все сериалы на PB.wtf

RePack

FAR CRY 5

Anonymous, доброй ночи, мы не успеваем до 1 числа собрать деньги на оплату серверов, помогите нам пожалуйста в это трудное время. В качестве благодарности мы отключим Вам всю рекламу на сайте (укажите свой ник в строку Ваше имя)!

×
  
Magnet ссылка

Тимбукту / Timbuktu (Абдеррахман Сиссако ) [2014, драма, HDRip, Любительский (одноголосый) [Pashaup] piratbit.pw

Тимбукту через торрент piratbit.pw

Размер: 1.46 GB | Добавлен: 6 лет назад | Торрент скачан:117 раз
Скачать  

06-06-2015 17:20 Тимбукту Скачать торрент  

Номинация на премию «Оскар 2015» в категории «Лучший фильм на иностранном языке»

Тимбукту / Timbuktu


ИНФОРМАЦИЯ:
Год выпуска: 2014
Страна: Франция, Мавритания
Жанр: драма
Продолжительность: 01:35:55
Перевод: Любительский (одноголосый) [Pashaup]
Субтитры: Русскиe (Skuf) (внешние)
Режиссер: Абдеррахман Сиссако

В Ролях:


Ибрахим Ахмед (Kidane), Абель Жафри (Abdelkerim), Тулу Кики (Satima), Лайла Валет Мохамед (Toya), Мехди А. Мохамед (Issan), Хайсем Якуби (Djihadiste), Кеттли Ноэль (Zabou), Фатумата Диавара (La chanteuse), Адель Махмуд Шериф (L'Imam), Салем Денду (Le chef djihadiste), Mamby Kamissoko (Djihadiste), Yoro Diakité (Djihadiste)

Описание:
Когда к власти в Тимбукту приходят религиозные фундаменталисты, жизнь простых людей превращается в ад, в котором запрещены любые развлечения, музыка, смех и любые попытки инакомыслия. Вдали от всего этого безумия, за пределами городской черты живет Кидан со своей женой Сатимой, дочерью Тойей и их 12-летним сыном, юным пастухом Иссаном. До поры до времени им удается вести мирную жизнь, в то время, как совсем рядом с ними каждый день вершится несправедливость. Все меняется в тот день, когда Кидан случайно убивает местного рыбака, зарезавшего его любимую корову. Все зло того мира, от которого хотели держаться подальше герой и его семья, обрушивается на них.

  • Мировая премьера:15 мая 2014

    ТЕХ.ДАННЫЕ:
    Качество: HDRip
    Формат: AVI
    Видео кодек: XviD
    Аудио кодек: AC3
    Видео: XviD, 720x304 (2.40:1), 1571 kbps, 23,976 fps, 0,300 bpp
    Аудио №1: AC3 / 2.0 / 48 kHz / 256 kbps / Любительский (одноголосый) Павел Морозов aka PashaUP
    Аудио №2: AC3 / 2.0 / 48 kHz / 256 kbps / Арабский



    Код:

    General
    Complete name                            : D:\Торенты\Timbuktu (2014),HDRip\Timbuktu (2014) HDRip .avi
    Format                                   : AVI
    Format/Info                              : Audio Video Interleave
    File size                                : 1.46 GiB
    Duration                                 : 1h 35mn
    Overall bit rate                         : 2 181 Kbps
    Movie name                               : Timbuktu.2014..720p.BRRip.850MB.MkvCage
    Writing application                      : XviD4PSP 6.0 / 54.29.105

    Video
    ID                                       : 0
    Format                                   : MPEG-4 Visual
    Format profile                           : Advanced Simple@L5
    Format settings, BVOP                    : 1
    Format settings, QPel                    : No
    Format settings, GMC                     : No warppoints
    Format settings, Matrix                  : Default (H.263)
    Codec ID                                 : XVID
    Codec ID/Hint                            : XviD
    Duration                                 : 1h 35mn
    Bit rate                                 : 1 572 Kbps
    Width                                    : 720 pixels
    Height                                   : 304 pixels
    Display aspect ratio                     : 2.40:1
    Frame rate                               : 23.976 fps
    Color space                              : YUV
    Chroma subsampling                       : 4:2:0
    Bit depth                                : 8 bits
    Scan type                                : Progressive
    Compression mode                         : Lossy
    Bits/(Pixel*Frame)                       : 0.300
    Stream size                              : 1.05 GiB (72%)
    Writing library                          : XviD 64

    Audio #1
    ID                                       : 1
    Format                                   : AC-3
    Format/Info                              : Audio Coding 3
    Mode extension                           : CM (complete main)
    Codec ID                                 : 2000
    Duration                                 : 1h 35mn
    Bit rate mode                            : Constant
    Bit rate                                 : 256 Kbps
    Channel(s)                               : 2 channels
    Channel positions                        : Front: L R
    Sampling rate                            : 48.0 KHz
    Bit depth                                : 16 bits
    Compression mode                         : Lossy
    Stream size                              : 176 MiB (12%)
    Alignment                                : Aligned on interleaves

    Audio #2
    ID                                       : 2
    Format                                   : AC-3
    Format/Info                              : Audio Coding 3
    Mode extension                           : CM (complete main)
    Codec ID                                 : 2000
    Duration                                 : 1h 35mn
    Bit rate mode                            : Constant
    Bit rate                                 : 256 Kbps
    Channel(s)                               : 2 channels
    Channel positions                        : Front: L R
    Sampling rate                            : 48.0 KHz
    Bit depth                                : 16 bits
    Compression mode                         : Lossy
    Stream size                              : 176 MiB (12%)
    Alignment                                : Aligned on interleaves

    Скриншоты:


    © Оформление by Ворон
    piratbit.pw



  • Скачать Тимбукту через торрент https://pic1.kartinco.top/images/61/ordi9.jpg Скачать фильм Тимбукту через торрент бесплантно в хорошем качестве Описание: Когда к власти в Тимбукту приходят религиозные фундаменталисты, жизнь простых людей превращается в ад, в котором запрещены любые ... 10 10 2
    Торрент: Зарегистрирован [2015-06-06 17:20] · скачан: 117 раз
    Статус: T временная
    Размер: 1.46 GB
    Как cкачать? Как скачать Тимбукту через торрент | UTorrent

    28-11-2019 20:33  

    Отключить всю рекламу на сайте

      Дорогой пользователь! Огромная просьба, поблагодарите релизера, оцените раздачу и оставьте свои комментарий, если Вы скачали Тимбукту через торрент бесплатно! Внесите свою лепту в развитие PiratBit!
      Комментировать посты могут только пользователи прошедшие не сложную регистрацию
      Показать сообщения:    

      Тимбукту через торрент
      Скачать бесплатно Тимбукту
      Тимбукту скачать торрент
      Тимбукту смотреть онлайн
      Cкачать фильм Тимбукту бесплатно
      Тимбукту скачать торрент в хорошем качестве
      Тимбукту смотреть онлайн бесплатно в хорошем качестве


      Вы не можете начинать темы
      Вы не можете отвечать на сообщения
      Вы не можете редактировать свои сообщения
      Вы не можете удалять свои сообщения
      Вы не можете голосовать в опросах
      Вы не можете прикреплять файлы к сообщениям
      Вы можете скачивать файлы