1 сезон

3 сезон

iTunes

1

iTunes

DUB Netflix

iTunes

13

1 сезон

RePack

30

Deluxe

pack

Легкие деньги

ВАЖНО

ИГРА 18+

pack

RePack

MK11

RePack

jed

RePack

fifa19

RePack

RDR2

RePack

NEED FOR SPEED™ PAYBACK

4 сезон

9 сезон

Бесстыжие 9 сезон

Все сериалы

все сериалы на PB.wtf

RePack

FAR CRY 5

Anonymous, доброй ночи, мы не успеваем до 1 числа собрать деньги на оплату серверов, помогите нам пожалуйста в это трудное время. В качестве благодарности мы отключим Вам всю рекламу на сайте (укажите свой ник в строку Ваше имя)!

×
  
Magnet ссылка

Экспедиция / Extinction (Адам Спинкс / Adam Spinks) [2014, Великобритания, приключения, HDRip, Любительский (двухголосый) [ColdFilm] piratbit.pw

Экспедиция через торрент piratbit.pw

Размер: 1.36 GB | Добавлен: 6 лет назад | Торрент скачан:467 раз
Скачать  

01-06-2015 03:42 Экспедиция Скачать торрент  

Экспедиция / Extinction
«Природа нашла место, чтобы развиваться»


  • Год выпуска: 2014
  • Страна: Великобритания
  • Жанр: приключения
  • Продолжительность: 01:44:20
  • Перевод: Любительский (двухголосый) [ColdFilm]

  • Режиссер: Адам Спинкс / Adam Spinks
  • В ролях:

    Sarah Mac (Michelle), Бен Лойд-Холмс (Professor John Howson), Нейл Ньюбон (Rob), Дэниел Карен (James), Emma Lillie Lees (Lisa), Саймон Барбеидж (Tim), Долорес Рейналс (Maria), Росс О’Хеннесси (Jeff), Эрнесто Лезек (Carlos), Анджела Розмари Питерс (Lucy), Фелим Келли (Associated Press member), Zarra Khan (Survivor)

  • Описание:
    В центре этой истории -группа во главе с довольно-таки уважаемым профессором. Ребята отправляются в экспедицию на большую реку, которая носит такое известное название как Амазонка. Там они хотят найти редкие виды животных, а может быть даже и несколько новых видов, но это если повезет. По пути у наших героев начинают твориться странные вещи. В результате всего этого, провожатые из местных отказываются от сопровождения этой группы, но почему. С этого момента всем становится еще страшнее...
  • Рейтинг:



  • Качество: HDRip
  • Формат: :AVI
  • Видео кодек: XviD
  • Аудио кодек: MP3
  • Видео: 720x400 (16:9), 1596 kbps, 23,976 fps, 0,231 bpp
  • Аудио: 2.0 / 48 kHz / 192 kbps
  • Релиз от: GEKADOL

    Код:

    General
    Complete name                            : D:\Фильмы\Extinction.2014.L2.HDRip.avi
    Format                                   : AVI
    Format/Info                              : Audio Video Interleave
    File size                                : 1.36 GiB
    Duration                                 : 1h 44mn
    Overall bit rate                         : 1 871 Kbps
    Writing application                      : VirtualDubMod 1.5.10.2 (build 2540/release)
    Writing library                          : VirtualDubMod build 2540/release

    Video
    ID                                       : 0
    Format                                   : MPEG-4 Visual
    Format profile                           : Advanced Simple@L5
    Format settings, BVOP                    : 4
    Format settings, QPel                    : No
    Format settings, GMC                     : 3 warppoints
    Format settings, Matrix                  : Default (MPEG)
    Codec ID                                 : XVID
    Codec ID/Hint                            : XviD
    Duration                                 : 1h 44mn
    Bit rate                                 : 1 596 Kbps
    Width                                    : 720 pixels
    Height                                   : 400 pixels
    Display aspect ratio                     : 16:9
    Frame rate                               : 23.976 fps
    Color space                              : YUV
    Chroma subsampling                       : 4:2:0
    Bit depth                                : 8 bits
    Scan type                                : Progressive
    Compression mode                         : Lossy
    Bits/(Pixel*Frame)                       : 0.231
    Stream size                              : 1.16 GiB (85%)
    Writing library                          : XviD 1.2.1 (UTC 2008-12-04)

    Audio
    ID                                       : 1
    Format                                   : MPEG Audio
    Format version                           : Version 1
    Format profile                           : Layer 3
    Mode                                     : Joint stereo
    Codec ID                                 : 55
    Codec ID/Hint                            : MP3
    Duration                                 : 1h 44mn
    Bit rate mode                            : Constant
    Bit rate                                 : 192 Kbps
    Channel(s)                               : 2 channels
    Sampling rate                            : 48.0 KHz
    Compression mode                         : Lossy
    Stream size                              : 143 MiB (10%)
    Alignment                                : Aligned on interleaves
    Writing library                          : LAME3.99.5




    Скриншоты:



    piratbit.pw



  • Скачать Экспедиция через торрент http://i4.imageban.ru/out/2015/06/01/3794863cc6bd9b74ee7cbe913f618bdf.jpg Скачать фильм Экспедиция через торрент бесплантно в хорошем качестве Описание: В центре этой истории -группа во главе с довольно-таки уважаемым профессором. Ребята отправляются в экспедицию на большую реку, ... 9 10 11
    Торрент: Зарегистрирован [2015-06-01 03:42] · скачан: 467 раз
    Статус: √ проверено
    Размер: 1.36 GB
    Как cкачать? Как скачать Экспедиция через торрент | UTorrent

    % Раздел Тема Автор DL S | L
    # Фильмы [HD 720p, 1080p] (Звук Cam, VO, DVO) [ 3.04 GB ] Экспедиция / Extinction [2014 BDRip 720p Любительский [ColdFilm] GEKADOL Скачать
    1 | 0

    28-11-2019 20:33  

    Отключить всю рекламу на сайте

    01-06-2015 16:26 Экспедиция Скачать торрент  

    83 скачавших и ноу комментс? как кино то?piratbit.pw



    06-06-2015 14:46 Экспедиция Скачать торрент  

    10 улетаю в Турцию и по этому решил пройтись по закачкам... если фильм интересны и я его просмотрю в самолете, то я обязательно отпишусь здесь.

    Хотя судя по сторонним комментария (не на этом ресурсе), то фильм заслуживает нашего внимания.

    Народ смотрим и поддержим автора данной темы.piratbit.pw



      Дорогой пользователь! Огромная просьба, поблагодарите релизера, оцените раздачу и оставьте свои комментарий, если Вы скачали Экспедиция через торрент бесплатно! Внесите свою лепту в развитие PiratBit!
      Комментировать посты могут только пользователи прошедшие не сложную регистрацию
      Показать сообщения:    

      Экспедиция через торрент
      Скачать бесплатно Экспедиция
      Экспедиция скачать торрент
      Экспедиция смотреть онлайн
      Cкачать фильм Экспедиция бесплатно
      Экспедиция скачать торрент в хорошем качестве
      Экспедиция смотреть онлайн бесплатно в хорошем качестве


      Вы не можете начинать темы
      Вы не можете отвечать на сообщения
      Вы не можете редактировать свои сообщения
      Вы не можете удалять свои сообщения
      Вы не можете голосовать в опросах
      Вы не можете прикреплять файлы к сообщениям
      Вы можете скачивать файлы