1 сезон

1 сезон

iTunes

1

КиноПоиск HD

Кинопоиск HD

iTunes

13

1 сезон

RePack

30

Ultimate

ВАЖНО

ИГРА 18+

pack

RePack

MK11
pack

Легкие деньги

RePack

jed

RePack

fifa19

RePack

RDR2

RePack

NEED FOR SPEED™ PAYBACK

4 сезон

9 сезон

Бесстыжие 9 сезон

Все сериалы

все сериалы на PB.wtf

RePack

FAR CRY 5
  
Magnet ссылка

Дракон: История Брюса Ли / Dragon: The Bruce Lee Story (Роб Коэн / Rob Cohen) [1993, боевик, драма, биография, BDRip] [AVO] (Л.Володарский) piratbit.pw

Дракон: История Брюса Ли через торрент piratbit.pw

Размер: 1.46 GB | Добавлен: 5 лет 10 мес. назад | Торрент скачан:52 раза
Скачать  

31-05-2015 09:05 Дракон: История Брюса Ли Скачать торрент  

Дракон: История Брюса Ли / Dragon: The Bruce Lee Story
✦ Год выпуска: 1993
✦ Страна: США
✦ Жанр: боевик, драма, биография
✦ Продолжительность: 01:59:57
✦ Перевод: Авторский (одноголосый, закадровый) [Л.Володарский]
✦ Cубтитры: нет

✦ Режиссер: Роб Коэн / Rob Cohen

✦ В ролях: Джейсон Скотт Ли, Лорен Холли, Роберт Вагнер, Майкл Лернд, Нэнси Кван, Кэй Тонг Лим, Рик Янг, Лоюн Ван, Стерлинг Мейсер мл., Свен-Оле Торсен

✦ Описание: Биографическая драма, рассказывающая о жизни легендарного Брюса Ли, погибшего таинственным образом. Фильм снят по воспоминаниям жены Брюса Линды Ли Колдуэлл. Создатели ленты попытались показать Ли как человека, преодолевающего препятствия, неуклонно идущего к цели.
Мистика и реальность переплетаются друг с другом, и Брюс Ли, великий «маленький дракон», вступает в бой не только с окружающей действительностью, но и с демоном преследующих его кошмаров.

Сэмпл

✦ Качество: BDRip [исх. Blu-ray disc - DRGN_BRUCE_LEE_STORY_BLUEBIRD 35.10 GB]
✦ Формат: AVI
✦ Видео кодек: XviD
✦ Аудио кодек: AC3
✦ Видео: 720x304 (2.37:1), 23.976 fps, XviD build 50 ~1546 kbps avg, 0.29 bit/pixel
✦ Аудио: 48 kHz, AC3 Dolby Digital, 2/0 (L,R) ch, ~192 kbps

Цитата:

дорожка от alenavova, синхрон: Linger babe


Релиз
История Брюса Ли - The Bruce Lee Story [by Edich2].avi
Format : AVI
Format/Info : Audio Video Interleave
File size : 1.46 GiB
Duration : 1h 59mn
Overall bit rate : 1 748 Kbps
Movie name : История Брюса Ли - The Bruce Lee Story [by Edich2]
Director : by Edich2
Writing application : VirtualDubMod 1.5.10.2 (build 2540/release)
Comment : RuTracker.org
Video
ID : 0
Format : MPEG-4 Visual
Format profile : Advanced Simple@L5
Format settings, BVOP : 1
Format settings, QPel : No
Format settings, GMC : No warppoints
Format settings, Matrix : Default (MPEG)
Codec ID : XVID
Codec ID/Hint : XviD
Duration : 1h 59mn
Bit rate : 1 547 Kbps
Width : 720 pixels
Height : 304 pixels
Display aspect ratio : 2.35:1
Frame rate : 23.976 fps
Color space : YUV
Chroma subsampling : 4:2:0
Bit depth : 8 bits
Scan type : Progressive
Compression mode : Lossy
Bits/(Pixel*Frame) : 0.295
Stream size : 1.30 GiB (88%)
Writing library : XviD 1.2.1 (UTC 2008-12-04)
Audio
ID : 1
Format : AC-3
Format/Info : Audio Coding 3
Mode extension : CM (complete main)
Format settings, Endianness : Big
Codec ID : 2000
Duration : 1h 59mn
Bit rate mode : Constant
Bit rate : 192 Kbps
Channel(s) : 2 channels
Channel positions : Front: L R
Sampling rate : 48.0 KHz
Bit depth : 16 bits
Compression mode : Lossy
Stream size : 165 MiB (11%)
Alignment : Split accross interleaves
Interleave, duration : 42 ms (1.00 video frame)
Interleave, preload duration : 500 ms
piratbit.pw



Скачать Дракон: История Брюса Ли через торрент http://s019.radikal.ru/i630/1504/92/613267d92e02.png Скачать фильм Дракон: История Брюса Ли через торрент бесплантно в хорошем качестве Описание: Биографическая драма, рассказывающая о жизни легендарного Брюса Ли, погибшего таинственным образом. Фильм снят по воспоминаниям ... 8.2 10 5
Info! Золотая раздача, скачанное не засчитывается.
Торрент: Зарегистрирован [2015-05-31 09:21] · скачан: 52 раз
Статус: √ проверено
Размер: 1.46 GB
Как cкачать? Как скачать Дракон: История Брюса Ли через торрент | UTorrent

% Раздел Тема Автор DL S | L
Фильмы до 2000 г. [ 1.45 GB ] Дракон: История Брюса Ли / Dragon: The Bruce Lee Story [1993 биография HDTVRip-AVC] MVO AVO Eng serg7628 Скачать
1 | 0

28-11-2019 20:33  

Отключить всю рекламу на сайте

    Дорогой пользователь! Огромная просьба, поблагодарите релизера, оцените раздачу и оставьте свои комментарий, если Вы скачали Дракон: История Брюса Ли через торрент бесплатно! Внесите свою лепту в развитие PiratBit!
    Комментировать посты могут только пользователи прошедшие не сложную регистрацию
    Показать сообщения:    

    Дракон: История Брюса Ли через торрент
    Скачать бесплатно Дракон: История Брюса Ли
    Дракон: История Брюса Ли скачать торрент
    Дракон: История Брюса Ли смотреть онлайн
    Cкачать фильм Дракон: История Брюса Ли бесплатно
    Дракон: История Брюса Ли скачать торрент в хорошем качестве
    Дракон: История Брюса Ли смотреть онлайн бесплатно в хорошем качестве


    Вы не можете начинать темы
    Вы не можете отвечать на сообщения
    Вы не можете редактировать свои сообщения
    Вы не можете удалять свои сообщения
    Вы не можете голосовать в опросах
    Вы не можете прикреплять файлы к сообщениям
    Вы можете скачивать файлы