Marvel's Avengers Deluxe Edition (супер цена) 159р. Внимание количество ограничено!!!

2 сезон

iTunes

iTunes

1

iTunes

iTunes

iTunes

WEBRip

iTunes

30
pack

Новость дня

ВАЖНО

!!Акция!!

Alien_RageХит недели

RePack

Horizon Zero Dawn

ИГРА 18+

pack

RePack

jed

!!Акция!!

Alien_Rage

RePack

fifa19

RePack

Assassins Creed: Odyssey

RePack

NEED FOR SPEED™ PAYBACK

4 сезон

9 сезон

Бесстыжие 9 сезон

Все сериалы

все сериалы на PB.wtf

RePack

FAR CRY 5
  

Приличные люди (Клим Поплавский ) [2015, комедия, WEB-DL 1080p] [iTunes] piratbit.pw

Приличные люди через торрент piratbit.pw

Размер: 3.26 GB | Добавлен: 5 лет 3 мес. назад | Торрент скачан:941 раз
Скачать  

29-05-2015 22:07 Приличные люди Скачать торрент  


Приличные люди
«Во все тяжкие»

ИНФОРМАЦИЯ:
Год выпуска:2015
Страна: Россия
Жанр: комедия
Продолжительность: 01:26:49
Перевод: Не требуется [iTunes]
Режиссер: Клим Поплавский

В Ролях:


Сергей Шнуров (дядя Игорь), Евгений Сморигин (учитель), Наталия Медведева (мама), Григорий Цветков (Никита), Артём Башенин (Виталик), Алексей Гришин (Паша), Игорь Хрипунов (Лёня), Андрей Федорцов, Константин Мурзенко, Лариса Малеванная (Мария Фёдоровна), Дмитрий Куличков (полицейский), Артем Смола (полицейский)

Описание:
Что делать, если в вашем доме поселился родственник, недавно освободившийся из тюрьмы? И сделал жизнь вашей семьи невыносимой. А вы с женой случайно его убили. И соседский мальчик видел, как вы пытались закопать труп на заднем дворе. А инспектор ДПС обратил внимание на вашего неразговорчивого родственника в машине. Не очень представляя себе жизнь за решеткой, вы, наверное, должны избавиться от трупа... и, видимо, от маленького свидетеля ... и полицейскому вы тоже как-то не должны позволить рассказать, что у вас в машине не совсем живой человек и чужой ребенок...


ТЕХ.ДАННЫЕ:
Качество: WEB-DL 1080p
Формат: MKV
Видео кодек: AVC
Аудио кодек: AC3
Видео: AVC, 1920x1034 (1.857), 4883 kbps, 25 fps, 0,098 bpp
Аудио: русский / AC3 / 5.1 / 48 kHz / 384 kbps / 16 bit ||
Навигация по главам: есть



Код:

General
Unique ID                                : 195014875252166080403638993553987202713 (0x92B67FB05E27040788D185561197EE99)
Complete name                            : D:\Торенты\5rilichnye.1udi.2015.O.WEB-DL.1080p.mkv
Format                                   : Matroska
Format version                           : Version 4 / Version 2
File size                                : 3.26 GiB
Duration                                 : 1h 26mn
Overall bit rate                         : 5 374 Kbps
Encoded date                             : UTC 2015-05-29 19:40:27
Writing application                      : mkvmerge v7.6.0 ('Garden of Dreams') 32bit built on Feb  8 2015 12:51:39
Writing library                          : libebml v1.3.1 + libmatroska v1.4.2

Video
ID                                       : 1
Format                                   : AVC
Format/Info                              : Advanced Video Codec
Format profile                           : High@L4.0
Format settings, CABAC                   : Yes
Format settings, ReFrames                : 4 frames
Codec ID                                 : V_MPEG4/ISO/AVC
Duration                                 : 1h 26mn
Bit rate                                 : 4 883 Kbps
Width                                    : 1 920 pixels
Height                                   : 1 034 pixels
Display aspect ratio                     : 1.857
Frame rate                               : 25.000 fps
Color space                              : YUV
Chroma subsampling                       : 4:2:0
Bit depth                                : 8 bits
Scan type                                : Progressive
Bits/(Pixel*Frame)                       : 0.098
Stream size                              : 2.96 GiB (91%)
Language                                 : English
Default                                  : Yes
Forced                                   : No
Color primaries                          : BT.709-5, BT.1361, IEC 61966-2-4, SMPTE RP177
Transfer characteristics                 : BT.709-5, BT.1361
Matrix coefficients                      : BT.709-5, BT.1361, IEC 61966-2-4 709, SMPTE RP177

Audio
ID                                       : 2
Format                                   : AC-3
Format/Info                              : Audio Coding 3
Mode extension                           : CM (complete main)
Codec ID                                 : A_AC3
Duration                                 : 1h 26mn
Bit rate mode                            : Constant
Bit rate                                 : 384 Kbps
Channel(s)                               : 6 channels
Channel positions                        : Front: L C R, Side: L R, LFE
Sampling rate                            : 48.0 KHz
Bit depth                                : 16 bits
Compression mode                         : Lossy
Stream size                              : 238 MiB (7%)
Language                                 : Russian
Default                                  : Yes
Forced                                   : No

Menu
00:00:00.000                             : en:1
00:04:05.000                             : en:2
00:12:04.000                             : en:3
00:18:12.000                             : en:4
00:23:15.000                             : en:5
00:29:20.000                             : en:6
00:34:21.000                             : en:7
00:40:05.000                             : en:8
00:46:35.000                             : en:9
00:51:48.000                             : en:10
00:57:29.000                             : en:11
01:04:16.000                             : en:12
01:09:17.000                             : en:13
01:15:58.000                             : en:14
01:20:00.000                             : en:15
01:24:34.000                             : en:16

Скриншоты:


© Оформление by Ворон
piratbit.pw



Скачать Приличные люди через торрент http://pic.kartinco.top/images/6/ordi9.jpg Скачать фильм Приличные люди через торрент бесплантно в хорошем качестве Описание: Что делать, если в вашем доме поселился родственник, недавно освободившийся из тюрьмы? И сделал жизнь вашей семьи невыносимой. А ... 10 10 12
Торрент: Зарегистрирован [2015-05-29 22:07] · скачан: 941 раз
Статус: √ проверено
Размер: 3.26 GB
Как cкачать? Как скачать Приличные люди через торрент | qTorrent

% Раздел Тема Автор DL S | L
Наши новые фильмы 2015 [ 1.37 GB ] Приличные люди [2015 WEB-DLRip] Ворон Скачать
1 | 0

28-11-2019 20:33  

Отключить всю рекламу на сайте

30-05-2015 03:57 Приличные люди Скачать торрент  

Шнуру придумали роль без слов(труп),чтобы не запипикивать? :rofle:piratbit.pw



30-05-2015 08:04 Приличные люди Скачать торрент  

Мерзкое кино!!!!!!!!!!!!!!!!!!!!!!!!!!!!!!!!!!!!!!!!!!!!!!!!!!!!!!! Шляпа полная!piratbit.pw



03-06-2015 10:21 Приличные люди Скачать торрент  

по сравнению с нашими последними горе-комедиями-очень даже смотрибельно-хотя сюжет уже давно измусолен америкосамиpiratbit.pw



06-06-2015 14:13 Приличные люди Скачать торрент  

sasha1966 писал(а):

по сравнению с нашими последними горе-комедиями-очень даже смотрибельно-хотя сюжет уже давно измусолен америкосами

скажите уважаемый ...и какие фильмы где так сюжет измусолен?piratbit.pw



02-08-2015 09:06 Приличные люди Скачать торрент  

KAMAZ18rus писал(а):

sasha1966 писал(а):

по сравнению с нашими последними горе-комедиями-очень даже смотрибельно-хотя сюжет уже давно измусолен америкосами

скажите уважаемый ...и какие фильмы где так сюжет измусолен?

Уик-энд у Берни и Уик-энд у Берни 2 намного веселееpiratbit.pw



    Дорогой пользователь! Огромная просьба, поблагодарите релизера, оцените раздачу и оставьте свои комментарий, если Вы скачали Приличные люди через торрент бесплатно! Внесите свою лепту в развитие PiratBit!
    Комментировать посты могут только пользователи прошедшие не сложную регистрацию
    Показать сообщения:    

    Приличные люди через торрент
    Скачать бесплатно Приличные люди
    Приличные люди скачать торрент
    Приличные люди смотреть онлайн
    Cкачать фильм Приличные люди бесплатно
    Приличные люди скачать торрент в хорошем качестве
    Приличные люди смотреть онлайн бесплатно в хорошем качестве


    Вы не можете начинать темы
    Вы не можете отвечать на сообщения
    Вы не можете редактировать свои сообщения
    Вы не можете удалять свои сообщения
    Вы не можете голосовать в опросах
    Вы не можете прикреплять файлы к сообщениям
    Вы можете скачивать файлы