1 сезон

1 сезон

iTunes

1

КиноПоиск HD

Кинопоиск HD

iTunes

13

1 сезон

RePack

30

Новинка

ВАЖНО

ИГРА 18+

pack

RePack

MK11
pack

Легкие деньги

RePack

jed

RePack

fifa19

RePack

RDR2

RePack

NEED FOR SPEED™ PAYBACK

4 сезон

9 сезон

Бесстыжие 9 сезон

Все сериалы

все сериалы на PB.wtf

RePack

FAR CRY 5
  
Magnet ссылка

Как поймать монстра / Lost River (Райан Гослинг) [2014 г., фэнтези, триллер, драма, детектив, HDRip, Авторский одноголосый закадровый "А. Матвеев"] piratbit.pw

Как поймать монстра через торрент piratbit.pw

Размер: 1.45 GB | Добавлен: 5 лет 10 мес. назад | Торрент скачан:28 раз
Скачать  

25-05-2015 17:56 Как поймать монстра Скачать торрент  

Как поймать монстра / Lost River
Год выпуска: 2014
Страна: США / Bold Films, Marc Platt Productions, Phantasma
Жанр: фэнтези, триллер, драма, детектив
Продолжительность: 01:35:01
Перевод: Авторский одноголосый закадровый (А. Матвеев)

Режиссер: Райан Гослинг

IMDB 5.90 (4847)


В ролях: Кристина Хендрикс, Йен де Кестекер, Сирша Ронан, Мэтт Смит, Бен Мендельсон, Ева Мендес, Реда Катеб, Барбара Стил, Лендин Стюарт, Роб Забрески

Описание: История о матери-одиночке, которая побывала в темном подземном мире, в то время как ее сын нашел дорогу, ведущую в подводный секретный город.

Качество: HDRip
Формат: AVI
Видео кодек: DivX
Аудио кодек: AC3
Видео: 720x304 (2.37:1), 23.976 fps, DivX Codec 4.x ~1732 kbps avg, 0.33 bit/pixel
Аудио: 48 kHz, AC3 Dolby Digital, 3/2 (L,C,R,l,r) + LFE ch, ~448 kbps
скриншот   скриншот   скриншот   скриншот   скриншот   скриншот   скриншот   скриншот   скриншот   скриншот  

Общее
Полное имя : F:\кино\Как поймать монстра.2014.HDRip.avi
Формат : AVI
Формат/Информация : Audio Video Interleave
Размер файла : 1,45 Гбайт
Продолжительность : 1 ч. 35 м.
Общий поток : 2190 Кбит/сек
Программа кодирования : VirtualDubMod 1.5.10.3 | www.virtualdub-fr.org || (build 2550/release)
Библиотека кодирования : VirtualDubMod build 2550/release

Видео
Идентификатор : 0
Формат : MPEG-4 Visual
Профиль формата : Advanced Simple@L5
Параметр BVOP формата : 2
Параметр QPel формата : Нет
Параметр GMC формата : Без точки перехода
Параметр матрицы формата : Default (H.263)
Идентификатор кодека : DIVX
Идентификатор кодека/Информация : Project Mayo
Идентификатор кодека/Подсказка : DivX 4
Продолжительность : 1 ч. 35 м.
Битрейт : 1732 Кбит/сек
Ширина : 720 пикселей
Высота : 304 пикселя
Соотношение сторон : 2,35:1
Частота кадров : 23,976 кадра/сек
Цветовое пространство : YUV
Субдискретизация насыщенности : 4:2:0
Битовая глубина : 8 бит
Тип развёртки : Прогрессивная
Метод сжатия : С потерями
Бит/(Пиксели*Кадры) : 0.330
Размер потока : 1,15 Гбайт (79%)
Библиотека кодирования : XviD 1.2.1 (UTC 2008-12-04)

Аудио
Идентификатор : 1
Формат : AC-3
Формат/Информация : Audio Coding 3
Расширение режима : CM (complete main)
Параметр Endianness формата : Big
Идентификатор кодека : 2000
Продолжительность : 1 ч. 35 м.
Вид битрейта : Постоянный
Битрейт : 448 Кбит/сек
Каналы : 6 каналов
Расположение каналов : Front: L C R, Side: L R, LFE
Частота : 48,0 КГц
Битовая глубина : 16 бит
Метод сжатия : С потерями
Размер потока : 305 Мбайт (20%)
Выравнивание : Разделение по промежуткам
Продолжительность промежутка : 42 мс. (1,00 видеокадр)
Время предзагрузки промежутка : 500 мс.

piratbit.pw



Скачать Как поймать монстра через торрент https://pic1.kartinco.top/images/10/sxjq1.jpg Скачать фильм Как поймать монстра через торрент бесплантно в хорошем качестве Описание: История о матери-одиночке, которая побывала в темном подземном мире, в то время как ее сын нашел дорогу, ведущую в подводный ... 6 10 3
Торрент: Зарегистрирован [2015-05-25 17:56] · скачан: 28 раз
Статус: √ проверено
Размер: 1.45 GB
Как cкачать? Как скачать Как поймать монстра через торрент | UTorrent

% Раздел Тема Автор DL S | L
Фильмы 2014 [DVDrip, WEB-DLRip, HDrip] [ 1.37 GB ] Как поймать монстра / Lost River [2014 HDRip - [НТВ Ворон Скачать
1 | 0
Фильмы [HD 720p, 1080p] (Хороший звук DUB, MVO) [ 4.13 GB ] Как поймать монстра / Lost River [2014 BDRip 720p - [НТВ Ворон Скачать
1 | 0
R.G. Resident & PiratVoice - Фильмы, Видео [ 1.46 GB ] Как поймать монстра / Lost River [2014 HDRip-AVC - [НТВ Ворон Скачать
2 | 0
T Фильмы 2014 [DVDrip, WEB-DLRip, HDrip] [ 1.44 GB ] Как поймать монстра / Lost River [2014 HDRip ] / Чистый звук GEKADOL Скачать
1 | 0
T Фильмы [HD 720p, 1080p] (Хороший звук DUB, MVO) [ 4.62 GB ] Как поймать монстра / Lost River [2014 BDRip 720p ] / Чистый звук + ENG GEKADOL Скачать
1 | 0

28-11-2019 20:33  

Отключить всю рекламу на сайте

25-05-2015 19:26 Как поймать монстра Скачать торрент  

-фэнтези, триллер, драма, детектив- Только не написали - комедия, ужасы, эротика. Более отстойного, тупого и непонятно зачем снятого фильма, я еще не видел. Фентези здесь - это больная фантазия обкуренного сценариста. Смотреть ценителям БОЛЬШОГО, ГЛУБОКОГО смысла и то, только под пиво или при наличии справки от врача. Автору спасибо.piratbit.pw



    Дорогой пользователь! Огромная просьба, поблагодарите релизера, оцените раздачу и оставьте свои комментарий, если Вы скачали Как поймать монстра через торрент бесплатно! Внесите свою лепту в развитие PiratBit!
    Комментировать посты могут только пользователи прошедшие не сложную регистрацию
    Показать сообщения:    

    Как поймать монстра через торрент
    Скачать бесплатно Как поймать монстра
    Как поймать монстра скачать торрент
    Как поймать монстра смотреть онлайн
    Cкачать фильм Как поймать монстра бесплатно
    Как поймать монстра скачать торрент в хорошем качестве
    Как поймать монстра смотреть онлайн бесплатно в хорошем качестве


    Вы не можете начинать темы
    Вы не можете отвечать на сообщения
    Вы не можете редактировать свои сообщения
    Вы не можете удалять свои сообщения
    Вы не можете голосовать в опросах
    Вы не можете прикреплять файлы к сообщениям
    Вы можете скачивать файлы