Marvel's Avengers Deluxe Edition (супер цена) 159р. Внимание количество ограничено!!!

2 сезон

iTunes

iTunes

1

iTunes

iTunes

iTunes

WEBRip

iTunes

30
pack

Новость дня

ВАЖНО

!!Акция!!

Alien_RageХит недели

RePack

Horizon Zero Dawn

ИГРА 18+

pack

RePack

jed

!!Акция!!

Alien_Rage

RePack

fifa19

RePack

Assassins Creed: Odyssey

RePack

NEED FOR SPEED™ PAYBACK

4 сезон

9 сезон

Бесстыжие 9 сезон

Все сериалы

все сериалы на PB.wtf

RePack

FAR CRY 5
  

Во имя любви (Андрей Селиванов) [2015, мелодрама, HDTV (1080i)] Оригинал piratbit.pw

Во имя любви через торрент piratbit.pw

Размер: 5.35 GB | Добавлен: 5 лет 3 мес. назад | Торрент скачан:130 раз
Скачать  

24-05-2015 04:06 Во имя любви Скачать торрент  

Во имя любви

Год выпуска: 2015
Страна: Россия
Жанр: мелодрама
Продолжительность: 01:30:19
Перевод: Оригинал

Режиссер: Андрей Селиванов
Продюсер: Александр Кушаев, Ирина Смирнова
Оператор: Кирилл Зоткин

В ролях: Екатерина Данилова (Настя), Антонина Паперная (Света), Станислав Бондаренко (Андрей), Сергей Астахов (Влад), Юрий Сазонов (Сергей), Диана Енакаева (Соня), Ирина Розанова (мама Насти), Александр Фарбер (врач)


Описание: Настя — человек редкой душевной щедрости. Помогая всем вокруг, она совсем беззащитна перед жестокими законами «выживания». Счастье, казалось бы, улыбается Насте — она встречает «мужчину своей мечты» Андрея. Но хитрая подруга Света с легкостью уводит у Насти возлюбленного и разбивает ей сердце.Однако трагическая случайность вскоре открывает Андрею глаза. Парень начинает понимать, что упустил сокровище, а под маской «доброй жены» скрывается настоящий монстр.
Премьера (РФ): 23 мая 2015



Качество: HDTV (1080i)
Формат: MPEG-TS
Видео кодек: H.264 (AVC)
Аудио кодеk: MP2
Видео: MPEG-4 AVC, 7866 Кбит/с, 1920x1080, 25 кадр/с
Аудио: Аудио #1: MP2, 2 ch, 192 Кбит/с, 48.0 KHz

Код:

Format                                   : MPEG-TS
File size                                : 5.35 GiB
Duration                                 : 1h 30mn
Overall bit rate mode                    : Variable
Overall bit rate                         : 8 479 Kbps

Video
ID                                       : 2911 (0xB5F)
Menu ID                                  : 1009 (0x3F1)
Format                                   : AVC
Format/Info                              : Advanced Video Codec
Format profile                           : High@L4.0
Format settings, CABAC                   : Yes
Format settings, ReFrames                : 4 frames
Codec ID                                 : 27
Duration                                 : 1h 30mn
Bit rate                                 : 7 866 Kbps
Width                                    : 1 920 pixels
Height                                   : 1 080 pixels
Display aspect ratio                     : 16:9
Frame rate                               : 25.000 fps
Color space                              : YUV
Chroma subsampling                       : 4:2:0
Bit depth                                : 8 bits
Scan type                                : MBAFF
Bits/(Pixel*Frame)                       : 0.152
Stream size                              : 4.96 GiB (93%)

Audio
ID                                       : 2912 (0xB60)
Menu ID                                  : 1009 (0x3F1)
Format                                   : MPEG Audio
Format version                           : Version 1
Format profile                           : Layer 2
Codec ID                                 : 3
Duration                                 : 1h 30mn
Bit rate mode                            : Constant
Bit rate                                 : 192 Kbps
Channel count                            : 2 channels
Sampling rate                            : 48.0 KHz
Compression mode                         : Lossy
Stream size                              : 124 MiB (2%)
Language                                 : Russian

piratbit.pw



Скачать Во имя любви через торрент http://i71.fastpic.ru/big/2015/0524/4d/6211e89b2ae28e2d5ef01227dbeee74d.jpg Скачать фильм Во имя любви через торрент бесплантно в хорошем качестве Описание: Настя — человек редкой душевной щедрости. Помогая всем вокруг, она совсем беззащитна перед жестокими законами «выживания». ... 10 10 4
Info! Золотая раздача, скачанное не засчитывается.
Торрент: Зарегистрирован [2015-05-24 04:06] · скачан: 130 раз
Статус: √ проверено
Размер: 5.35 GB
Как cкачать? Как скачать Во имя любви через торрент | qTorrent

28-11-2019 20:33  

Отключить всю рекламу на сайте

    Дорогой пользователь! Огромная просьба, поблагодарите релизера, оцените раздачу и оставьте свои комментарий, если Вы скачали Во имя любви через торрент бесплатно! Внесите свою лепту в развитие PiratBit!
    Комментировать посты могут только пользователи прошедшие не сложную регистрацию
    Показать сообщения:    

    Во имя любви через торрент
    Скачать бесплатно Во имя любви
    Во имя любви скачать торрент
    Во имя любви смотреть онлайн
    Cкачать фильм Во имя любви бесплатно
    Во имя любви скачать торрент в хорошем качестве
    Во имя любви смотреть онлайн бесплатно в хорошем качестве


    Вы не можете начинать темы
    Вы не можете отвечать на сообщения
    Вы не можете редактировать свои сообщения
    Вы не можете удалять свои сообщения
    Вы не можете голосовать в опросах
    Вы не можете прикреплять файлы к сообщениям
    Вы можете скачивать файлы