1 сезон

3 сезон

iTunes

1

iTunes

DUB Netflix

iTunes

13

1 сезон

RePack

30

Deluxe

pack

Легкие деньги

ВАЖНО

ИГРА 18+

pack

RePack

MK11

RePack

jed

RePack

fifa19

RePack

RDR2

RePack

NEED FOR SPEED™ PAYBACK

4 сезон

9 сезон

Бесстыжие 9 сезон

Все сериалы

все сериалы на PB.wtf

RePack

FAR CRY 5

Anonymous, доброй ночи, мы не успеваем до 1 числа собрать деньги на оплату серверов, помогите нам пожалуйста в это трудное время. В качестве благодарности мы отключим Вам всю рекламу на сайте (укажите свой ник в строку Ваше имя)!

×
  
Magnet ссылка

Кат Бэнк / Cut Bank (Мэтт Шекман ) [2014, триллер, HDRip, DVO] (ColdFilm) piratbit.pw

Кат Бэнк через торрент piratbit.pw

Размер: 1.37 GB | Добавлен: 6 лет назад | Торрент скачан:217 раз
Скачать  

23-05-2015 06:12 Кат Бэнк Скачать торрент  


Кат Бэнк / Cut Bank
«Good Folks. Bad Deeds»

ИНФОРМАЦИЯ:
Год выпуска:2014
Страна: США
Жанр: триллер
Продолжительность: 01:33:08
Перевод: Любительский (двухголосый)(ColdFilm)
Режиссер: Мэтт Шекман

В Ролях:


Лиам Хемсворт (Dwayne McLaren), Тереза Палмер (Cassandra), Билли Боб Торнтон (Big Stan), Брюс Дерн (Georgie Wits), Джон Малкович (Sheriff Vogel), Оливер Платт (Joe Barrett), Тай Олссон (Harvey), Майкл Стулбарг (Derby Milton), Соня Саломяа (Gretchen), Пейтон Кеннеди (Rosie), Кристиан Дистефано (Wyatt), Кинг Лау (Nurse)

Описание:
Дуэйн МакЛарен живет в городе Кат Бэнк, штат Монтана, работает в автомастерской, но в школе был звездой футбола. Поскольку городок буквально застрял во времени, Дуэйну очень хочется вырваться из него. Он предпринимает все возможное, чтобы покинуть Кат Бэнк, тем самым запуская череду событий, которые изменят не только его жизнь, но и сам город.

  • Мировая премьера:16 июня 2014

    ТЕХ.ДАННЫЕ:
    Качество: HDRip
    Формат: AVI
    Видео кодек: XviD
    Аудио кодек: AC3
    Видео: XviD, 720x304 (2.35:1), 1623 kbps, 23,976 fps, 0,309 bpp
    Аудио №1: AC3 / 2.0 / 48 kHz / 192 kbps / RUS
    Аудио №2: AC3 / 2.0 / 48 kHz / 192 kbps /ENG



    Код:

    General
    Complete name                            : D:\Торенты\Cut.Bank.2014.DVO.HDRip.1400Mb.avi
    Format                                   : AVI
    Format/Info                              : Audio Video Interleave
    File size                                : 1.37 GiB
    Duration                                 : 1h 33mn
    Overall bit rate                         : 2 101 Kbps
    Writing application                      : VirtualDubMod 1.5.10.2 (build 2540/release)
    Writing library                          : VirtualDubMod build 2540/release

    Video
    ID                                       : 0
    Format                                   : MPEG-4 Visual
    Format profile                           : Advanced Simple@L5
    Format settings, BVOP                    : 2
    Format settings, QPel                    : No
    Format settings, GMC                     : No warppoints
    Format settings, Matrix                  : Default (MPEG)
    Codec ID                                 : XVID
    Codec ID/Hint                            : XviD
    Duration                                 : 1h 33mn
    Bit rate                                 : 1 623 Kbps
    Width                                    : 720 pixels
    Height                                   : 304 pixels
    Display aspect ratio                     : 2.35:1
    Frame rate                               : 23.976 fps
    Color space                              : YUV
    Chroma subsampling                       : 4:2:0
    Bit depth                                : 8 bits
    Scan type                                : Progressive
    Compression mode                         : Lossy
    Bits/(Pixel*Frame)                       : 0.309
    Stream size                              : 1.06 GiB (77%)
    Writing library                          : XviD 1.2.1 (UTC 2008-12-04)

    Audio #1
    ID                                       : 1
    Format                                   : AC-3
    Format/Info                              : Audio Coding 3
    Mode extension                           : CM (complete main)
    Codec ID                                 : 2000
    Duration                                 : 1h 33mn
    Bit rate mode                            : Constant
    Bit rate                                 : 192 Kbps
    Channel(s)                               : 2 channels
    Channel positions                        : Front: L R
    Sampling rate                            : 48.0 KHz
    Bit depth                                : 16 bits
    Compression mode                         : Lossy
    Stream size                              : 128 MiB (9%)
    Alignment                                : Split accross interleaves

    Audio #2
    ID                                       : 2
    Format                                   : AC-3
    Format/Info                              : Audio Coding 3
    Mode extension                           : CM (complete main)
    Codec ID                                 : 2000
    Duration                                 : 1h 33mn
    Bit rate mode                            : Constant
    Bit rate                                 : 192 Kbps
    Channel(s)                               : 2 channels
    Channel positions                        : Front: L R
    Sampling rate                            : 48.0 KHz
    Bit depth                                : 16 bits
    Compression mode                         : Lossy
    Stream size                              : 128 MiB (9%)
    Alignment                                : Split accross interleaves

    Скриншоты:


    © Оформление by Ворон
    piratbit.pw



  • Скачать Кат Бэнк через торрент https://pic1.kartinco.top/images/61/ordi9.jpg Скачать фильм Кат Бэнк через торрент бесплантно в хорошем качестве Описание: Дуэйн МакЛарен живет в городе Кат Бэнк, штат Монтана, работает в автомастерской, но в школе был звездой футбола. Поскольку ... 10 10 5
    Торрент: Зарегистрирован [2015-05-23 06:12] · скачан: 217 раз
    Статус: T временная
    Размер: 1.37 GB
    Как cкачать? Как скачать Кат Бэнк через торрент | UTorrent

    % Раздел Тема Автор DL S | L
    T Фильмы [HD 720p, 1080p] (Звук Cam, VO, DVO) [ 4.22 GB ] Кат Бэнк / Cut Bank [2014 BDRip 720p DVO] Ворон Скачать
    1 | 0
    T Фильмы 2014 (Звук TS, Cam, VO, DVO) [ 743 MB ] Кат Бэнк / Cut Bank [2014 WEB-DLRip Любительский ] ninla Скачать
    1 | 0
    Фильмы без перевода [ 2.14 GB ] Кат Бэнк / Cut Bank [2014 WEB-DL 720p Субтитры Серёжк@ Скачать
    1 | 0

    28-11-2019 20:33  

    Отключить всю рекламу на сайте

      Дорогой пользователь! Огромная просьба, поблагодарите релизера, оцените раздачу и оставьте свои комментарий, если Вы скачали Кат Бэнк через торрент бесплатно! Внесите свою лепту в развитие PiratBit!
      Комментировать посты могут только пользователи прошедшие не сложную регистрацию
      Показать сообщения:    

      Кат Бэнк через торрент
      Скачать бесплатно Кат Бэнк
      Кат Бэнк скачать торрент
      Кат Бэнк смотреть онлайн
      Cкачать фильм Кат Бэнк бесплатно
      Кат Бэнк скачать торрент в хорошем качестве
      Кат Бэнк смотреть онлайн бесплатно в хорошем качестве


      Вы не можете начинать темы
      Вы не можете отвечать на сообщения
      Вы не можете редактировать свои сообщения
      Вы не можете удалять свои сообщения
      Вы не можете голосовать в опросах
      Вы не можете прикреплять файлы к сообщениям
      Вы можете скачивать файлы