1 сезон

3 сезон

iTunes

1

iTunes

DUB Netflix

iTunes

13

1 сезон

RePack

30

Deluxe

pack

Легкие деньги

ВАЖНО

ИГРА 18+

pack

RePack

MK11

RePack

jed

RePack

fifa19

RePack

RDR2

RePack

NEED FOR SPEED™ PAYBACK

4 сезон

9 сезон

Бесстыжие 9 сезон

Все сериалы

все сериалы на PB.wtf

RePack

FAR CRY 5

Anonymous, доброй ночи, мы не успеваем до 1 числа собрать деньги на оплату серверов, помогите нам пожалуйста в это трудное время. В качестве благодарности мы отключим Вам всю рекламу на сайте (укажите свой ник в строку Ваше имя)!

×
  
Magnet ссылка

Резня в Рэдвуде / The Redwood Massacre (Дэвид Райан Кит ) [2014, ужасы, фэнтези, HDRip, Любительский (двухголосый)[2D] piratbit.pw

Резня в Рэдвуде через торрент piratbit.pw

Размер: 1.37 GB | Добавлен: 6 лет назад | Торрент скачан:195 раз
Скачать  

20-05-2015 15:49 Резня в Рэдвуде Скачать торрент  


Резня в Рэдвуде / The Redwood Massacre


ИНФОРМАЦИЯ:
Год выпуска:2014
Страна: Великобритания
Жанр: ужасы, фэнтези
Продолжительность: 01:22:18
Перевод: Любительский (двухголосый) [2D]
Режиссер: Дэвид Райан Кит

В Ролях:


Марк Вуд (Bruce), Лиза Камерон (Pamela), Лиза Ливингстоун (Kirsty), Ребекка Вилки (Jessica), Адам Коуттс (Mark), Ли Хатчеон (Hunter), Бенжамин Селвэй (Evil Highlander), Алек Вествуд (Dead Drunk), Лиам Мэтисон (Farmer), Морган Фэйт Кит (Farmers Daughter), Claire Bearn (Farmers Wife), Шерил Бернард (Daisy)

Описание:
Пятеро друзей посещают в уик-энд место якобы серийных убийств, являющееся городской легендой. Но они даже и не думали, что эта поездка превратится для них из невинного приключения в кровавую резню.

  • Мировая премьера:28 сентября 2014

    ТЕХ.ДАННЫЕ:
    Качество: HDRip
    Формат: AVI
    Видео кодек: XviD
    Аудио кодек: AC3
    Видео: XviD, 720x320 (2.25:1), 1723 kbps, 25 fps, 0,283 bpp
    Аудио №1: AC3 / 2.0 / 48 kHz / 192 kbps / Russian
    Аудио №2: AC3 / 5.1 / 48 kHz / 448 kbps / English



    Код:

    General
    Complete name                            : D:\Торенты\Reznya.v.Redwood.2014.L2.HDRip.1400Mb.avi
    Format                                   : AVI
    Format/Info                              : Audio Video Interleave
    File size                                : 1.37 GiB
    Duration                                 : 1h 22mn
    Overall bit rate                         : 2 377 Kbps
    Writing application                      : VirtualDubMod 1.5.10.2 (build 2540/release)
    Writing library                          : VirtualDubMod build 2540/release

    Video
    ID                                       : 0
    Format                                   : MPEG-4 Visual
    Codec ID                                 : XVID
    Codec ID/Hint                            : XviD
    Duration                                 : 1h 22mn
    Bit rate                                 : 1723 Kbps
    Width                                    : 720 pixels
    Height                                   : 320 pixels
    Display aspect ratio                     : 2.25:1
    Frame rate                               : 25.000 fps
    Color space                              : YUV
    Chroma subsampling                       : 4:2:0
    Compression mode                         : Lossy
    Bits/(Pixel*Frame)                       : 0.283
    Stream size                              : 961 MiB (69%)

    Audio #1
    ID                                       : 1
    Format                                   : AC-3
    Format/Info                              : Audio Coding 3
    Mode extension                           : CM (complete main)
    Codec ID                                 : 2000
    Duration                                 : 1h 22mn
    Bit rate mode                            : Constant
    Bit rate                                 : 192 Kbps
    Channel(s)                               : 2 channels
    Channel positions                        : Front: L R
    Sampling rate                            : 48.0 KHz
    Bit depth                                : 16 bits
    Compression mode                         : Lossy
    Stream size                              : 113 MiB (8%)
    Alignment                                : Aligned on interleaves

    Audio #2
    ID                                       : 2
    Format                                   : AC-3
    Format/Info                              : Audio Coding 3
    Codec ID                                 : 2000
    Duration                                 : 1h 22mn
    Bit rate mode                            : Constant
    Bit rate                                 : 448 Kbps
    Channel(s)                               : 6 channels
    Sampling rate                            : 48.0 KHz
    Compression mode                         : Lossy
    Stream size                              : 264 MiB (19%)
    Alignment                                : Aligned on interleaves

    Скриншоты:


    © Оформление by Ворон
    piratbit.pw



  • Скачать Резня в Рэдвуде через торрент https://pic1.kartinco.top/images/61/ordi9.jpg Скачать фильм Резня в Рэдвуде через торрент бесплантно в хорошем качестве Описание: Пятеро друзей посещают в уик-энд место якобы серийных убийств, являющееся городской легендой. Но они даже и не думали, что эта ... 6.5 10 10
    Торрент: Зарегистрирован [2015-05-20 15:49] · скачан: 195 раз
    Статус: √ проверено
    Размер: 1.37 GB
    Как cкачать? Как скачать Резня в Рэдвуде через торрент | UTorrent

    % Раздел Тема Автор DL S | L
    Фильмы без перевода [ 1.24 GB ] Резня в Рэдвуде / The Redwood Massacre [2014 BDRip Оригинал] makarevich Скачать
    1 | 0

    28-11-2019 20:33  

    Отключить всю рекламу на сайте

      Дорогой пользователь! Огромная просьба, поблагодарите релизера, оцените раздачу и оставьте свои комментарий, если Вы скачали Резня в Рэдвуде через торрент бесплатно! Внесите свою лепту в развитие PiratBit!
      Комментировать посты могут только пользователи прошедшие не сложную регистрацию
      Показать сообщения:    

      Резня в Рэдвуде через торрент
      Скачать бесплатно Резня в Рэдвуде
      Резня в Рэдвуде скачать торрент
      Резня в Рэдвуде смотреть онлайн
      Cкачать фильм Резня в Рэдвуде бесплатно
      Резня в Рэдвуде скачать торрент в хорошем качестве
      Резня в Рэдвуде смотреть онлайн бесплатно в хорошем качестве


      Вы не можете начинать темы
      Вы не можете отвечать на сообщения
      Вы не можете редактировать свои сообщения
      Вы не можете удалять свои сообщения
      Вы не можете голосовать в опросах
      Вы не можете прикреплять файлы к сообщениям
      Вы можете скачивать файлы