1 сезон

1 сезон

iTunes

1

КиноПоиск HD

Кинопоиск HD

iTunes

13

1 сезон

RePack

30

Новинка

ВАЖНО

ИГРА 18+

pack

RePack

MK11
pack

Легкие деньги

RePack

jed

RePack

fifa19

RePack

RDR2

RePack

NEED FOR SPEED™ PAYBACK

4 сезон

9 сезон

Бесстыжие 9 сезон

Все сериалы

все сериалы на PB.wtf

RePack

FAR CRY 5
  
Magnet ссылка

Зимняя спячка / Kis Uykusu (Нури Бильге Джейлан ) [2014, драма, HDRip, Авторский (одноголосый) [Ю.Сербин] piratbit.pw

Зимняя спячка через торрент piratbit.pw

Размер: 1.46 GB | Добавлен: 5 лет 11 мес. назад | Торрент скачан:27 раз
Скачать  

20-05-2015 15:15 Зимняя спячка Скачать торрент  


Зимняя спячка / Kis Uykusu


ИНФОРМАЦИЯ:
Год выпуска:2014
Страна: Турция, Франция, Германия
Жанр: драма
Продолжительность: 03:16:45
Перевод: Авторский (одноголосый) [Ю.Сербин]
Режиссер: Нури Бильге Джейлан

В Ролях:


Халук Бильгинер (Aydin), Мелиса Сёзен (Nihal), Демет Акбаг (Necla), Айберк Пекджан (Hidayet), Серхат Кылыч (Hamdi), Неджат Ишлер (Ismail), Тэмер Левент (Suavi), Надир Сарыбаджак (Levent), Эмирхан Доруктутан (Ilyas), Экрем Ильхан (Ekrem), Rabia Özel (Fatma), Фатма Дениз Йильдиз (Sevda)

Описание:
Отель «Отелло» в Анатолии. Им управляет импозантный седовласый Айдин, бывший театральный актер, чья слава давно прошла. Вместе с ним живут красавица-жена, занимающаяся благотворительностью, и сестра, тоскующая по мужу, с которым не так давно развелась. Небывалый снегопад отрезает отель от цивилизации, и он становится убежищем для этих трех человек и декорацией, в которой разыгрываются сцены их мучений.

  • Мировая премьера:16 мая 2014

    ТЕХ.ДАННЫЕ:
    Качество: HDRip
    Формат: AVI
    Видео кодек: XviD
    Аудио кодек: AC3
    Видео: XviD, 720x304 (2.35:1), 922 kbps, 23,976 fps, 0,168 bpp
    Аудио: AC3 / 2.0 / 48 kHz / 128 kbps / 16 bit



    Код:

    General
    Complete name                            : D:\Торенты\Z1mnYaYa.Sp1achk0.2015.P1.HDRip.1.46GB.avi
    Format                                   : AVI
    Format/Info                              : Audio Video Interleave
    File size                                : 1.46 GiB
    Duration                                 : 3h 16mn
    Overall bit rate                         : 1 060 Kbps
    Writing application                      : VirtualDubMod 1.5.10.2 (build 2540/release)
    Writing library                          : VirtualDubMod build 2540/release

    Video
    ID                                       : 0
    Format                                   : MPEG-4 Visual
    Format profile                           : Advanced Simple@L5
    Format settings, BVOP                    : 2
    Format settings, QPel                    : No
    Format settings, GMC                     : No warppoints
    Format settings, Matrix                  : Default (MPEG)
    Codec ID                                 : XVID
    Codec ID/Hint                            : XviD
    Duration                                 : 3h 16mn
    Bit rate                                 : 922 Kbps
    Width                                    : 720 pixels
    Height                                   : 304 pixels
    Display aspect ratio                     : 2.35:1
    Frame rate                               : 23.976 fps
    Color space                              : YUV
    Chroma subsampling                       : 4:2:0
    Bit depth                                : 8 bits
    Scan type                                : Progressive
    Compression mode                         : Lossy
    Bits/(Pixel*Frame)                       : 0.168
    Stream size                              : 1.21 GiB (83%)
    Writing library                          : XviD 1.2.1 (UTC 2008-12-04)

    Audio
    ID                                       : 1
    Format                                   : AC-3
    Format/Info                              : Audio Coding 3
    Mode extension                           : CM (complete main)
    Codec ID                                 : 2000
    Duration                                 : 3h 16mn
    Bit rate mode                            : Constant
    Bit rate                                 : 128 Kbps
    Channel(s)                               : 2 channels
    Channel positions                        : Front: L R
    Sampling rate                            : 48.0 KHz
    Bit depth                                : 16 bits
    Compression mode                         : Lossy
    Stream size                              : 180 MiB (12%)
    Alignment                                : Split accross interleaves

    Скриншоты:


    © Оформление by Ворон
    piratbit.pw



  • Скачать Зимняя спячка через торрент https://pic.kartinco.top/images/6/ordi9.jpg Скачать фильм Зимняя спячка через торрент бесплантно в хорошем качестве Описание: Отель «Отелло» в Анатолии. Им управляет импозантный седовласый Айдин, бывший театральный актер, чья слава давно прошла. Вместе с ... 7 10 3
    Торрент: Зарегистрирован [2015-05-20 15:15] · скачан: 27 раз
    Статус: √ проверено
    Размер: 1.46 GB
    Как cкачать? Как скачать Зимняя спячка через торрент | UTorrent

    % Раздел Тема Автор DL S | L
    Фильмы 2014 [DVDrip, WEB-DLRip, HDrip] [ 2.18 GB ] Зимняя спячка / Kis uykusu [2014 HDRip многоголосый [] Ворон Скачать
    1 | 0
    Фильмы [HD 720p, 1080p] (Хороший звук DUB, MVO) [ 16.64 GB ] Зимняя спячка / Kis uykusu [2014 BDRip 1080p] многоголосый [] -Lexx- Скачать
    1 | 0
    Фильмы 2014 [DVDrip, WEB-DLRip, HDrip] [ 2.24 GB ] Зимняя спячка / Kis Uykusu [2014 Турция Германия HDRip MVO] [Кинопоказ] GEKADOL Скачать
    1 | 0
    Фильмы с авторской озвучкой [ 2.18 GB ] Зимняя спячка / Kis Uykusu [2014 HDRip Авторский [Ю.Сербин] Ворон Скачать
    1 | 0

    28-11-2019 20:33  

    Отключить всю рекламу на сайте

      Дорогой пользователь! Огромная просьба, поблагодарите релизера, оцените раздачу и оставьте свои комментарий, если Вы скачали Зимняя спячка через торрент бесплатно! Внесите свою лепту в развитие PiratBit!
      Комментировать посты могут только пользователи прошедшие не сложную регистрацию
      Показать сообщения:    

      Зимняя спячка через торрент
      Скачать бесплатно Зимняя спячка
      Зимняя спячка скачать торрент
      Зимняя спячка смотреть онлайн
      Cкачать фильм Зимняя спячка бесплатно
      Зимняя спячка скачать торрент в хорошем качестве
      Зимняя спячка смотреть онлайн бесплатно в хорошем качестве


      Вы не можете начинать темы
      Вы не можете отвечать на сообщения
      Вы не можете редактировать свои сообщения
      Вы не можете удалять свои сообщения
      Вы не можете голосовать в опросах
      Вы не можете прикреплять файлы к сообщениям
      Вы можете скачивать файлы