Ссылка на приватное зеркало нашего сайта всего за 1$. Внимание количество ограничено!!!

2 сезон

iTunes

1 сезон

1

iTunes

iTunes

iTunes

1 сезон

RePack

30

ИГРА 18+

pack

ВАЖНО

!!Акция!!

Alien_RageХит недели

RePack

MK11
pack

Забери бонус

RePack

jed

!!Акция!!

Alien_Rage

RePack

fifa19

RePack

Assassins Creed: Odyssey

RePack

NEED FOR SPEED™ PAYBACK

4 сезон

9 сезон

Бесстыжие 9 сезон

Все сериалы

все сериалы на PB.wtf

RePack

FAR CRY 5
  

Территория (Александр Мельник) [2014 г., драма, приключения, WEB-DLRip] piratbit.pw

Территория через торрент piratbit.pw

Размер: 2.19 GB | Добавлен: 5 лет 5 мес. назад | Торрент скачан:1236 раз
Скачать  

16-05-2015 18:26 Территория Скачать торрент  

Территория
Год выпуска: 2014
Страна: Россия / Кинокомпания «Андреевский флаг»
Жанр: драма, приключения
Продолжительность: 02:31:52

Режиссер: Александр Мельник

IMDB 7.90 (97)


В ролях: Константин Лавроненко, Григорий Добрыгин, Егор Бероев, Ксения Кутепова, Евгений Цыганов, Владислав Абашин, Герасим Васильев, Константин Шелестун, Константин Балакирев, Олег Шапков

Описание: Территория — это место, где люди проверяются на прочность. Необозримые пространства, где тундра встречается с ледяными торосами Ледовитого океана. Суровый русский север, которому способны бросить вызов немногие. Геолог Илья Чинков, одержимый идеей найти легендарное золото Территории, собирает команду смельчаков, готовых поставить на карту все, включая собственные жизни.

Качество: WEB-DLRip
Формат: AVI
Видео кодек: XviD
Аудио кодек: AC3
Видео: 720x304 (2.37:1), 25 fps, XviD build 50 ~1677 kbps avg, 0.31 bit/pixel
Аудио: 48 kHz, AC3 Dolby Digital, 3/2 (L,C,R,l,r) + LFE ch, ~384 kbps

Общее
Полное имя : F:\кино\Территория.2015.WEB-DLRip.avi
Формат : AVI
Формат/Информация : Audio Video Interleave
Профиль формата : OpenDML
Размер файла : 2,19 Гбайт
Продолжительность : 2 ч. 31 м.
Общий поток : 2068 Кбит/сек
Программа кодирования : VirtualDubMod 1.5.10.3 | www.virtualdub-fr.org || (build 2550/release)
Библиотека кодирования : VirtualDubMod build 2550/release

Видео
Идентификатор : 0
Формат : MPEG-4 Visual
Профиль формата : Advanced Simple@L5
Параметр BVOP формата : 2
Параметр QPel формата : Нет
Параметр GMC формата : Без точки перехода
Параметр матрицы формата : Default (H.263)
Идентификатор кодека : XVID
Идентификатор кодека/Подсказка : XviD
Продолжительность : 2 ч. 31 м.
Битрейт : 1672 Кбит/сек
Ширина : 720 пикселей
Высота : 304 пикселя
Соотношение сторон : 2,35:1
Частота кадров : 25,000 кадров/сек
Цветовое пространство : YUV
Субдискретизация насыщенности : 4:2:0
Битовая глубина : 8 бит
Тип развёртки : Прогрессивная
Метод сжатия : С потерями
Бит/(Пиксели*Кадры) : 0.306
Размер потока : 1,77 Гбайт (81%)
Библиотека кодирования : XviD 1.2.1 (UTC 2008-12-04)

Аудио
Идентификатор : 1
Формат : AC-3
Формат/Информация : Audio Coding 3
Расширение режима : CM (complete main)
Параметр Endianness формата : Big
Идентификатор кодека : 2000
Продолжительность : 2 ч. 31 м.
Вид битрейта : Постоянный
Битрейт : 384 Кбит/сек
Каналы : 6 каналов
Расположение каналов : Front: L C R, Side: L R, LFE
Частота : 48,0 КГц
Битовая глубина : 16 бит
Метод сжатия : С потерями
Размер потока : 417 Мбайт (19%)
Выравнивание : Разделение по промежуткам
Продолжительность промежутка : 40 мс. (1,00 видеокадр)
Время предзагрузки промежутка : 500 мс.

piratbit.pw



Скачать Территория через торрент http://pic1.kartinco.top/images/10/i2kcu.jpg Скачать фильм Территория через торрент бесплантно в хорошем качестве Описание: Территория — это место, где люди проверяются на прочность. Необозримые пространства, где тундра встречается с ледяными торосами ... 9.7 10 40
Info! Золотая раздача, скачанное не засчитывается.
Торрент: Зарегистрирован [2015-05-16 18:26] · скачан: 1 236 раз
Статус: √ проверено
Размер: 2.19 GB
Как cкачать? Как скачать Территория через торрент | qTorrent

% Раздел Тема Автор DL S | L
TNT serials [ 10.16 GB ] Территория / Сезон: 1 / Серии: 1-7 из 7 [2020 WEBRip 1080p ] bober100 Скачать
187 | 242
TNT serials [ 3.97 GB ] Территория / Сезон: 1 / Серии: 1-7 из 7 [2020 WEBRip-AVC] bober100 Скачать
14 | 7
TNT serials [ 4.3 GB ] Территория / Сезон: 1 / Серии: 1-7 из 7 [2020 SATRip] bober100 Скачать
23 | 14
TNT serials [ 11.61 GB ] Территория / Сезон: 1 / Серии: 1-7 из 7 [2020 HDTV 1080i] bober100 Скачать
9 | 7
TNT serials [ 6.95 GB ] Территория / Сезон: 1 / Серии: 1-7 из 7 [2020 WEBRip 720p ] bober100 Скачать
18 | 6
TNT serials [ 4.1 GB ] Территория / Сезон: 1 / Серии: 1-7 из 7 [2020 WEBRip ] bober100 Скачать
13 | 2
Наши сериалы [ 4.96 GB ] Территория / Сезон: 1 / Серии: 1-8 из 8 [2019 WEBRip-AVC] bober100 Скачать
11 | 0

28-11-2019 20:33  

Отключить всю рекламу на сайте

19-05-2015 19:09 Территория Скачать торрент  

Кто смотрел отпишитесь плиз!!!??piratbit.pw



22-05-2015 18:32 Территория Скачать торрент  

Мутиловка!
nopiratbit.pw



24-05-2015 21:53 Территория Скачать торрент  

Спал весь фильм. Лучше бы что то нормальное сняли... а то гейропа, гейропа, загнивающий капитализм усё... piratbit.pw



    Дорогой пользователь! Огромная просьба, поблагодарите релизера, оцените раздачу и оставьте свои комментарий, если Вы скачали Территория через торрент бесплатно! Внесите свою лепту в развитие PiratBit!
    Комментировать посты могут только пользователи прошедшие не сложную регистрацию
    Показать сообщения:    

    Территория через торрент
    Скачать бесплатно Территория
    Территория скачать торрент
    Территория смотреть онлайн
    Cкачать фильм Территория бесплатно
    Территория скачать торрент в хорошем качестве
    Территория смотреть онлайн бесплатно в хорошем качестве


    Вы не можете начинать темы
    Вы не можете отвечать на сообщения
    Вы не можете редактировать свои сообщения
    Вы не можете удалять свои сообщения
    Вы не можете голосовать в опросах
    Вы не можете прикреплять файлы к сообщениям
    Вы можете скачивать файлы