1 сезон

1 сезон

iTunes

1

КиноПоиск HD

Кинопоиск HD

iTunes

13

1 сезон

RePack

30

Новинка

ВАЖНО

ИГРА 18+

pack

RePack

MK11
pack

Легкие деньги

RePack

jed

RePack

fifa19

RePack

RDR2

RePack

NEED FOR SPEED™ PAYBACK

4 сезон

9 сезон

Бесстыжие 9 сезон

Все сериалы

все сериалы на PB.wtf

RePack

FAR CRY 5
  
Magnet ссылка

Пропавшая в ночи / Исчезнувший в ночи / Gone in the Night (Билл Л. Нортон / Bill L. Norton) [1996, Триллер, Детектив, Драма, DVDRip] [AVO] (С.Визгунов) piratbit.pw

Пропавшая в ночи через торрент piratbit.pw

Размер: 2.87 GB | Добавлен: 5 лет 11 мес. назад | Торрент скачан:41 раз
Скачать  

16-05-2015 15:57 Пропавшая в ночи Скачать торрент  

Пропавшая в ночи / Исчезнувший в ночи / Gone in the Night
Год выпуска: 1996
Страна: США
Жанр: Триллер, Детектив, Драма
Продолжительность: 02:51:09
Перевод: Авторский (одноголосый, закадровый) [С.Визгунов]
Cубтитры: нет

Режиссер: Билл Л. Нортон / Bill L. Norton

В ролях: Шэннен Доэрти, Кевин Диллон, Лоуренс Хенсон, Джеймс Энтони, Эдвард Эснер, Джинн Аверилл, Майкл Брэндон, Кевин Бриф, Билли Бёрк, Девон Ариэль Кехилл

Описание: В семье Д. среди ночи похищена семилетняя Жаклин, которую через несколько дней находят задушенной. Трагедия разыгралась во время предвыборной кампании прокурора Ричарда Дэйна. Времени на поиски истинного убийцы нет - что угрожает политической карьере. И вот быстро фабрикуется дело против самих родителей, с размахом освещаемое в прессе и на телевидении. Семья лишается всего - родительских прав, дома, свободы. Но мир не без добрых людей. И вот уже совершенно бесплатно детективы и адвокаты докапываются до истины и вместе с мужественной женой добиваются освобождения мужа, осужденного на 80 лет.
>>>>>>>>>>>>>>>
Сценарий Брайана Л. Росса по книге Дэвида Протесса и Роба Уордена.
Фильм основан на реальных событиях.


Сэмпл

Качество видео: DVDRip
Формат видео: AVI
Видео кодек: XviD
Аудио кодек: AC3
Видео: XviD build 50, 704x528 (1.33:1), 25.00 fps, 2198 kbps avg, 0.24 bit/pixel
Аудио: AC3 Dolby Digital, 48000Hz, 2/0 (L,R) ch (stereo), 192.00 kbps avg

Цитата:

Дорожка с С. Визгуновым ремастирована, синхронизирована, преобразована в СТЕРЕО и наложена ale_x2008 при помощи Adobe Audition, iZotope RX2, Sony Vegas и VirtualDubMod.
За оцифрованную с VHS дорожку благодарим - sera1

Релиз
Пропавшая в ночи [Исчезнувший в ночи] - Gone in the Night.avi
Format : AVI
Format/Info : Audio Video Interleave
Format profile : OpenDML
File size : 2.87 GiB
Duration : 2h 51mn
Overall bit rate : 2 398 Kbps
Writing application : VirtualDubMod 1.5.10.2 (build 2540/release)
Writing library : VirtualDubMod build 2540/release
Video
ID : 0
Format : MPEG-4 Visual
Format profile : Advanced Simple@L5
Format settings, BVOP : 1
Format settings, QPel : No
Format settings, GMC : No warppoints
Format settings, Matrix : Default (MPEG)
Codec ID : XVID
Codec ID/Hint : XviD
Duration : 2h 51mn
Bit rate : 2 195 Kbps
Width : 704 pixels
Height : 528 pixels
Display aspect ratio : 4:3
Frame rate : 25.000 fps
Color space : YUV
Chroma subsampling : 4:2:0
Bit depth : 8 bits
Scan type : Progressive
Compression mode : Lossy
Bits/(Pixel*Frame) : 0.236
Stream size : 2.62 GiB (92%)
Writing library : XviD 1.2.1 (UTC 2008-12-04)
Audio
ID : 1
Format : AC-3
Format/Info : Audio Coding 3
Mode extension : CM (complete main)
Format settings, Endianness : Big
Codec ID : 2000
Duration : 2h 51mn
Bit rate mode : Constant
Bit rate : 192 Kbps
Channel(s) : 2 channels
Channel positions : Front: L R
Sampling rate : 48.0 KHz
Bit depth : 16 bits
Compression mode : Lossy
Stream size : 235 MiB (8%)
Alignment : Split accross interleaves
Interleave, duration : 40 ms (1.00 video frame)
Interleave, preload duration : 500 ms

ПОСВЯЩАЕТСЯ ПАМЯТИ АЛЕКСАНДРА КОЗЛОВАpiratbit.pw



Скачать Пропавшая в ночи через торрент http://i69.fastpic.ru/big/2015/0516/2d/9dc31c58d22c5b2a025414fef4e1982d.jpg Скачать фильм Пропавшая в ночи через торрент бесплантно в хорошем качестве Описание: В семье Д. среди ночи похищена семилетняя Жаклин, которую через несколько дней находят задушенной. Трагедия разыгралась во время ... 5.5 10 2
Торрент: Зарегистрирован [2015-05-16 15:57] · скачан: 41 раз
Статус: √ проверено
Размер: 2.87 GB
Как cкачать? Как скачать Пропавшая в ночи через торрент | UTorrent

28-11-2019 20:33  

Отключить всю рекламу на сайте

    Дорогой пользователь! Огромная просьба, поблагодарите релизера, оцените раздачу и оставьте свои комментарий, если Вы скачали Пропавшая в ночи через торрент бесплатно! Внесите свою лепту в развитие PiratBit!
    Комментировать посты могут только пользователи прошедшие не сложную регистрацию
    Показать сообщения:    

    Пропавшая в ночи через торрент
    Скачать бесплатно Пропавшая в ночи
    Пропавшая в ночи скачать торрент
    Пропавшая в ночи смотреть онлайн
    Cкачать фильм Пропавшая в ночи бесплатно
    Пропавшая в ночи скачать торрент в хорошем качестве
    Пропавшая в ночи смотреть онлайн бесплатно в хорошем качестве


    Вы не можете начинать темы
    Вы не можете отвечать на сообщения
    Вы не можете редактировать свои сообщения
    Вы не можете удалять свои сообщения
    Вы не можете голосовать в опросах
    Вы не можете прикреплять файлы к сообщениям
    Вы можете скачивать файлы