1 сезон

3 сезон

iTunes

1

iTunes

DUB Netflix

iTunes

13

1 сезон

RePack

30

Deluxe

pack

Легкие деньги

ВАЖНО

ИГРА 18+

pack

RePack

MK11

RePack

jed

RePack

fifa19

RePack

RDR2

RePack

NEED FOR SPEED™ PAYBACK

4 сезон

9 сезон

Бесстыжие 9 сезон

Все сериалы

все сериалы на PB.wtf

RePack

FAR CRY 5

Anonymous, добрый вечер, мы не успеваем до 1 числа собрать деньги на оплату серверов, помогите нам пожалуйста в это трудное время. В качестве благодарности мы отключим Вам всю рекламу на сайте (укажите свой ник в строку Ваше имя)!

×
  
Magnet ссылка

Геркулес / Hercules Reborn (Ник Лион ) [2014, боевик, приключения, HDRip, Любительский (двухголосый) [ColdFilm] piratbit.pw

Геркулес через торрент piratbit.pw

Размер: 1.36 GB | Добавлен: 6 лет 1 мес. назад | Торрент скачан:303 раза
Скачать  

15-05-2015 20:29 Геркулес Скачать торрент  


Геркулес / Hercules Reborn


ИНФОРМАЦИЯ:
Год выпуска:2014
Страна: США
Жанр: боевик, приключения
Продолжительность: 01:35:12
Перевод: Любительский (двухголосый) [ColdFilm]
Режиссер: Ник Лион

В Ролях:


Джон Хенниган (Hercules), Кристиан Оливер (Arius), Маркус Широк (Cyrus), Джеймс Дювал (Horace), Дилан Вокс (Nikos), Кристина Вульф (Princess Theodora), Алистэр Дафф (Bartender), Фуед Мансур (Creepy Caretaker), Джереми Инман (Tymek), Jennifer Marie Paul (Iona), Ben Chagra Khalid (King Demetrius), Aurelie Armelle Simone Chatellier (Queen Evenya)

Описание:
Юноша, чью невесту похитили, обращается за помощью к Геркулесу, некогда прославленному герою, живущему в изгнании. Вместе им предстоит сражаться со злом, дабы вернуть честь и пропавшую любовь.

  • Мировая премьера:15 июля 2014

    ТЕХ.ДАННЫЕ:
    Качество: HDRip
    Формат: AVI
    Видео кодек: XviD
    Аудио кодек: MP3
    Видео: XviD, 720x400 (16:9), 1846 kbps, 23,976 fps, 0,256 bpp
    Аудио: MP3 / 2.0 / 48 kHz / 192 kbps /



    Код:

    General
    Complete name                            : D:\Торенты\Hercules.L2.2014.HDRip.avi
    Format                                   : AVI
    Format/Info                              : Audio Video Interleave
    File size                                : 1.36 GiB
    Duration                                 : 1h 35mn
    Overall bit rate                         : 2 051 Kbps
    Writing application                      : VirtualDubMod 1.5.10.2 (build 2540/release)
    Writing library                          : VirtualDubMod build 2540/release

    Video
    ID                                       : 0
    Format                                   : MPEG-4 Visual
    Format profile                           : Advanced Simple@L5
    Format settings, BVOP                    : 4
    Format settings, QPel                    : No
    Format settings, GMC                     : 3 warppoints
    Format settings, Matrix                  : Default (MPEG)
    Codec ID                                 : XVID
    Codec ID/Hint                            : XviD
    Duration                                 : 1h 35mn
    Bit rate                                 : 1846 Kbps
    Width                                    : 720 pixels
    Height                                   : 400 pixels
    Display aspect ratio                     : 16:9
    Frame rate                               : 23.976 fps
    Color space                              : YUV
    Chroma subsampling                       : 4:2:0
    Bit depth                                : 8 bits
    Scan type                                : Progressive
    Compression mode                         : Lossy
    Bits/(Pixel*Frame)                       : 0.256
    Stream size                              : 1.18 GiB (86%)
    Writing library                          : XviD 1.2.1 (UTC 2008-12-04)

    Audio
    ID                                       : 1
    Format                                   : MPEG Audio
    Format version                           : Version 1
    Format profile                           : Layer 3
    Mode                                     : Joint stereo
    Codec ID                                 : 55
    Codec ID/Hint                            : MP3
    Duration                                 : 1h 35mn
    Bit rate mode                            : Constant
    Bit rate                                 : 192 Kbps
    Channel(s)                               : 2 channels
    Sampling rate                            : 48.0 KHz
    Compression mode                         : Lossy
    Stream size                              : 131 MiB (9%)
    Alignment                                : Aligned on interleaves
    Writing library                          : LAME3.99.5

    Скриншоты:


    © Оформление by Ворон
    piratbit.pw



  • Скачать Геркулес через торрент http://s020.radikal.ru/i702/1505/3d/95243c6d92ac.png Скачать фильм Геркулес через торрент бесплантно в хорошем качестве Описание: Юноша, чью невесту похитили, обращается за помощью к Геркулесу, некогда прославленному герою, живущему в изгнании. Вместе им ... 7.3 10 10
    Торрент: Зарегистрирован [2015-05-15 20:29] · скачан: 303 раз
    Статус: T временная
    Размер: 1.36 GB
    Как cкачать? Как скачать Геркулес через торрент | UTorrent

    28-11-2019 20:33  

    Отключить всю рекламу на сайте

    15-05-2015 20:35 Геркулес Скачать торрент  

    Производство:
    1. Global Asylum
    Чтоб никто не сомневался... sarcasticpiratbit.pw



    18-05-2015 10:06 Геркулес Скачать торрент  

    ЧУШЬ!!!piratbit.pw



    30-05-2015 23:27 Геркулес Скачать торрент  

    Надо было на главную роль артура пирожкова брать))) :rofle:piratbit.pw



      Дорогой пользователь! Огромная просьба, поблагодарите релизера, оцените раздачу и оставьте свои комментарий, если Вы скачали Геркулес через торрент бесплатно! Внесите свою лепту в развитие PiratBit!
      Комментировать посты могут только пользователи прошедшие не сложную регистрацию
      Показать сообщения:    

      Геркулес через торрент
      Скачать бесплатно Геркулес
      Геркулес скачать торрент
      Геркулес смотреть онлайн
      Cкачать фильм Геркулес бесплатно
      Геркулес скачать торрент в хорошем качестве
      Геркулес смотреть онлайн бесплатно в хорошем качестве


      Вы не можете начинать темы
      Вы не можете отвечать на сообщения
      Вы не можете редактировать свои сообщения
      Вы не можете удалять свои сообщения
      Вы не можете голосовать в опросах
      Вы не можете прикреплять файлы к сообщениям
      Вы можете скачивать файлы